<?xml version="1.0" standalone="no"?>
<!DOCTYPE svg PUBLIC "-//W3C//DTD SVG 1.1//EN" "http://www.w3.org/Graphics/SVG/1.1/DTD/svg11.dtd" >
<svg xmlns="http://www.w3.org/2000/svg" xmlns:xlink="http://www.w3.org/1999/xlink" version="1.1">
<metadata></metadata>
<defs>
<font id="fbliddar_regularregular" horiz-adv-x="700" >
<font-face units-per-em="2048" ascent="1638" descent="-410" />
<missing-glyph horiz-adv-x="481" />
<glyph unicode="&#xd;" horiz-adv-x="512" />
<glyph unicode=" "  horiz-adv-x="481" />
<glyph unicode="&#x09;" horiz-adv-x="481" />
<glyph unicode="&#xa0;" horiz-adv-x="481" />
<glyph unicode="!" horiz-adv-x="305" d="M357 680q-3 -21 -64 -152q-65 -141 -78 -182q-18 -59 -73.5 -158.5t-69.5 -103.5q-2 0 -2 4q0 55 88 244q4 12 90 229q43 105 49 135q8 39 27 39q45 -8 45 -18q0 -4 -5 -15.5t-7 -21.5zM84 -55q-8 -47 -49 -47q-18 0 -30.5 23.5t-2.5 39.5q8 14 28.5 28.5t31.5 12.5 q30 -14 22 -57z" />
<glyph unicode="&#x22;" horiz-adv-x="479" d="M651 776q-14 -47 -71.5 -111.5t-108.5 -89.5q-41 -20 -54 -18q-4 0 -2 6q78 62 117 119q17 27 41 84q21 82 53 82q33 0 33 -25q0 -14 -8 -47zM465 768q-15 -47 -72 -111.5t-109 -89.5q-41 -20 -53 -18q-4 2 -4 6q82 68 119 119q14 26 39 86q20 82 55 82t35 -25 q0 -16 -10 -49z" />
<glyph unicode="#" horiz-adv-x="944" d="M942 430q-27 -6 -281 -12q-47 -96 -88 -199q78 -2 148 -8q61 -8 57 -10q-24 -15 -221 -23q-4 -8 -8 -20q-23 -72 -78 -149t-61 -62q-5 4 90 229q-13 0 -181 -20q-90 -183 -94 -172q-10 16 58 166q-31 -5 -52 -11q-47 -10 -125 -43q-36 -14 -49 0q-12 29 -12 39t14 12 q23 7 31 11q27 12 215 43l86 186q-53 -10 -143 -27q-49 -12 -127 -43q-35 -16 -45 0q-15 31 -15 41q0 7 11 11q20 4 28 8q54 26 314 69q100 234 128.5 265.5t26.5 31.5q11 0 41 -26q8 -12 -15.5 -42t-74.5 -122q-14 -25 -51 -96q53 6 149 4q60 112 86 141q7 6 15 23 q6 10 10 10q10 0 39 -27q10 -12 -14 -43q-31 -41 -70 -106q96 -4 186 -17q82 -10 72 -12zM594 416q-57 -2 -156 -19l-47 -92l-47 -100l16 2q78 12 160 12q12 33 25.5 77t48.5 120z" />
<glyph unicode="$" horiz-adv-x="858" d="M856 535q-35 24 -119 61q-25 6 -53 6q-44 -108 -105 -285l-4 -20q149 -49 147 -127q-2 -76 -239 -131q-33 -94 -44 -134t-63 -81l68 203q-37 -7 -123 -15q-8 0 -45 -2q-31 -59 -39 -80q-8 -30 -29 -73q-8 -9 -16 -9q-10 0 -16 19q10 29 59 141q-186 2 -209 62 q-4 10 -4 22q0 29 41 80t59 51q9 0 -4 -30q-12 -19 -24 -39q-19 -29 -21 -62q-2 -20 52.5 -36.5t127.5 -16.5q37 94 109 270q-170 62 -160 135q8 60 115 111q41 23 160 63l59 160q12 39 27 78q10 31 24.5 34t28.5 5q6 2 8 -12q0 -11 -6 -17q-12 -10 -27 -39 q-18 -65 -65 -194q37 6 133 10q10 29 29 80q24 68 47 74q39 14 30 -9q-20 -32 -57 -118q-4 -13 -10 -29q94 -12 158 -106zM638 608q-49 -4 -131 -14q-36 -102 -90 -256l29 -6q33 -6 88 -19q31 90 68 185q12 43 36 110zM460 582q-94 -21 -157 -66q-54 -41 -52 -70 q2 -59 131 -94q25 80 78 230zM681 174q5 39 -120 80q-21 -61 -62 -182q176 51 182 102zM522 268q-37 8 -97 23l-22 6q-35 -82 -107 -256q15 0 39 2q82 8 123 16q15 52 39 131z" />
<glyph unicode="%" horiz-adv-x="911" d="M815 303q0 -104 -90 -199q-117 -127 -223 -127q-88 0 -88 64q0 117 112 209q123 98 232 98q57 0 57 -45zM749 309q-75 6 -196 -84q-37 -28 -66.5 -81.5t-29.5 -86.5q0 -32 53 -32q49 0 110 34q50 29 76 60q72 78 72 162q0 26 -19 28zM444 637q0 -107 -88 -203 q-119 -125 -221 -125q-88 0 -88 64q0 114 113 207q125 102 231 102q53 0 53 -45zM379 643q-70 6 -193 -88q-39 -29 -69.5 -82t-30.5 -86t53 -33q101 0 187 99q71 77 71 161q0 27 -18 29zM760 645q-8 -18 -35 -39q-35 -24 -53 -47q-230 -237 -510 -543q-35 -47 -80 -47 q-12 0 -25 4q60 62 219.5 233t360.5 386q67 78 96 76q37 -4 27 -23z" />
<glyph unicode="&#x26;" horiz-adv-x="1521" d="M1419 158q-20 -84 -107.5 -148.5t-174.5 -64.5q-136 0 -312 172q-182 -172 -405 -172q-141 0 -227 75q-91 79 -91 218q0 150 119 269q75 75 248 173q-68 139 -68 256q0 130 76 216q79 91 207 91q110 0 179 -57q75 -62 75 -170q0 -195 -287 -324q121 -223 244 -385 q172 213 172 338q0 80 -121 88v39h400v-39q-63 -8 -91 -22q-50 -24 -84 -88q-125 -231 -233 -369q149 -174 285 -174q57 0 97 28q27 18 73 72zM840 1022q0 69 -40 114.5t-108 45.5q-143 0 -143 -164q0 -107 74 -266q217 126 217 270zM776 168q-127 166 -280 446 q-220 -131 -220 -311q0 -107 66 -181q68 -77 174 -77q133 0 260 123z" />
<glyph unicode="'" horiz-adv-x="292" d="M465 776q-15 -47 -72 -111.5t-109 -89.5q-41 -20 -53 -18q-4 0 -4 6q82 66 119 119q14 27 39 84q20 82 55 82t35 -25q0 -14 -10 -47z" />
<glyph unicode="(" horiz-adv-x="501" d="M567 846q-2 -12 -14 -35q-15 0 -60 -20q-239 -160 -321 -496q-19 -74 -19 -178q0 -273 70 -377q14 -21 10 -35q-18 10 -45 31q-31 41 -57 151q-29 125 -29 248q0 207 115 418q121 223 299 299q28 12 43 8q10 -2 8 -14z" />
<glyph unicode=")" horiz-adv-x="522" d="M442 596q21 -68 21 -162q0 -117 -37 -211q-59 -149 -207 -280q-119 -109 -199 -133q-20 -5 -20 4q0 12 20 20q60 29 162 123q156 141 197 276q33 109 33 201q0 82 -25 160q-27 88 -139 203q-4 6 7 25.5t21 19.5q7 -2 9 -4q116 -107 157 -242z" />
<glyph unicode="*" horiz-adv-x="684" d="M325 487q-21 -16 -29 -4q-6 11 129 195q-65 -4 -156 -14q-24 -2 -65 -5q-18 -2 -29.5 7.5t-9.5 17.5q4 10 152 21q41 2 98 12q-31 41 -84 104q-23 21 -55 56q-7 12 -9 20q2 4 5 6q34 -4 71 -47q17 -18 49 -57l60 -68q35 66 90 154q12 18 23.5 36.5t23.5 16.5 q35 -8 10 -35q-18 -18 -43 -63q-14 -27 -69 -115q51 2 147 6q61 6 77.5 -10t10.5 -21q-2 -2 -31 2q-12 0 -204 -14q20 -22 65 -76q27 -26 62 -75q10 -29 6 -33q-17 -12 -27 6q-6 10 -137 156q-60 -84 -131 -179z" />
<glyph unicode="+" horiz-adv-x="593" d="M534 326q-10 -19 -43 -17q-63 4 -161 -16q-9 -12 -35 -70q-19 -76 -54 -153q-10 -2 -14 18q-4 25 0 72q6 61 29 125q-68 4 -119 -9q-43 -12 -68 -6q-8 0 -12 15q-6 16 8 24q31 29 219 37q15 29 52 113q47 96 84 84q32 -8 32 -19q0 -6 -12 -18q-47 -47 -80 -156 q103 10 131 8q56 -6 43 -32z" />
<glyph unicode="," horiz-adv-x="299" d="M207 84q-14 -51 -84 -143q-74 -101 -119 -122.5t-51 -19.5q-2 2 2 6q111 89 146 197q10 33 26 84q21 72 55 72q35 0 35 -25q0 -16 -10 -49z" />
<glyph unicode="-" horiz-adv-x="540" d="M520 336q-23 -10 -50 -10q-98 6 -219 -27q-57 -14 -78 -8q-8 0 -12 20q-6 21 8 29q19 18 150 25q110 6 158 0q53 -7 43 -29z" />
<glyph unicode="." horiz-adv-x="290" d="M175 76q0 -27 -40 -67t-66 -34q-31 29 -31 43q0 56 37 74q49 25 61 25q39 0 39 -41z" />
<glyph unicode="/" horiz-adv-x="475" d="M648 733q-6 -18 -33 -39q-33 -24 -51 -49q-279 -323 -606 -715q-49 -63 -115 -69q59 71 217 258q207 258 455 563q67 74 94 72q49 -2 39 -21z" />
<glyph unicode="0" horiz-adv-x="720" d="M706 571q0 -73 -41 -174q-45 -108 -109 -180q-198 -219 -376 -219q-56 0 -111 20q-39 17 -39 88q0 82 49 181q53 110 144 186q206 178 391 178q32 0 62 -9t30 -71zM620 608q-137 13 -365 -166q-69 -55 -125.5 -158.5t-56.5 -168.5q0 -64 98 -64q95 0 209 70 q90 55 142.5 115.5t92.5 156.5t40 160q0 53 -35 55z" />
<glyph unicode="1" horiz-adv-x="720" d="M678 662q-29 -23 -105 -144q-41 -86 -141 -274q-106 -203 -123 -217q-43 -41 -61 -41q-17 0 -17 16q0 4 54 84q45 68 135 254q26 55 100 184l-297 -198q-28 -23 -94 -70q-43 4 -29 37q4 12 430 299q27 18 62 61q29 35 39 37q18 6 33.5 -4t13.5 -24z" />
<glyph unicode="2" horiz-adv-x="720" d="M717 586q-6 -62 -247 -258q-76 -60 -396 -269l410 39q57 6 80 2q18 -4 16 -16q-2 -10 -27.5 -23.5t-39.5 -9.5q-9 2 -25 2q-41 0 -367 -49q-49 -6 -116 -20q-33 -7 -43 -2q-29 10 -29 32q0 6 4 11q125 79 348 227q68 45 189 143q110 90 142 123t32 62q0 49 -56 49 q-90 0 -229 -66q-68 -31 -86 -31q-33 0 -33 23q0 14 95 53q159 66 276 66q37 0 71.5 -29t30.5 -59z" />
<glyph unicode="3" horiz-adv-x="720" d="M703 594q4 -29 -51 -47q-92 -35 -262 -160q272 -51 254 -162q-17 -94 -184 -166q-144 -61 -256 -61q-183 0 -218 70q-16 30 -18 63q29 14 33 -6q6 -35 47 -66q31 -20 102 -20q49 0 133 12q76 10 177 60q116 57 118 106t-60.5 87t-141.5 30q-107 -10 -121.5 0t-14.5 31 q0 18 17 24q6 -2 69 25q54 26 279 161q-107 7 -160 0q-69 -6 -158 -26q-16 -12 -28 -8q-39 4 -39 32q0 9 10 15q23 10 103 26q98 17 176 17q190 -2 194 -37z" />
<glyph unicode="4" horiz-adv-x="720" d="M790 713q-4 -8 -37 -29q-41 -22 -53 -37.5t-174 -312.5q19 2 23 2q36 -2 82 -17q8 -12 2 -43q-29 7 -95 15q-8 -2 -34 -4q-23 -33 -146 -260q-16 -31 -59 -43q2 30 53 139q4 8 88 172q-106 8 -313 -25q-101 -14 -105 -12q-12 10 -12 37q0 18 66 55q112 72 319 199 q340 199 363 194q43 -6 32 -30zM614 618q-131 -73 -524 -305q278 33 375 25q53 92 149 280z" />
<glyph unicode="5" horiz-adv-x="720" d="M856 668q2 -13 -20 -15q-10 0 -49 2q-82 4 -215 -12q-101 -12 -244 -61q0 -4 -12 -29q-9 -16 -72 -107q35 3 152 7q88 2 159 -35q95 -51 90 -154q-4 -110 -165 -205q-148 -86 -277 -86q-172 0 -235 62q-23 22 -23 53q0 27 14 49q6 -2 15 -14q-2 -19 16 -57 q43 -52 182 -52q131 0 262 70q156 82 156 205q0 61 -76 92q-57 25 -127 22q-26 0 -196 -22q-4 0 -29 41q-6 12 19 37q16 16 71 102q-8 12 -6 21q4 24 64 47q127 47 260 65q59 8 123 8q151 0 163 -34z" />
<glyph unicode="6" horiz-adv-x="720" d="M768 690q-25 -18 -107 -33q-104 -18 -251 -114q-140 -92 -215 -189q-146 -178 -146 -276q0 -90 98 -90q121 0 291 94q178 98 178 178q0 74 -110 74q-68 0 -142.5 -32t-115.5 -71q-21 -16 -25 -75q-2 -19 -16 -19q-21 0 -21 60q0 92 158 149q100 37 166 37q108 0 145 -88 q6 -16 6 -33q0 -102 -192 -211q-184 -104 -330 -104q-137 0 -137 135q0 123 147 305q93 113 265 213q153 90 241 100q88 13 113 -10z" />
<glyph unicode="7" horiz-adv-x="720" d="M794 643q-10 -27 -67 -31q-9 0 -26 -17t-109 -116h126q-2 -8 -20 -22q-16 -4 -149 -29q-166 -180 -367 -405q-21 -27 -33 -60q-2 -4 -6 -4q-10 0 -26.5 13.5t-16.5 23.5q0 12 29 35q20 18 348 389q-62 4 -98 -4q-66 -19 -156 -41q-33 -6 -33 37q0 30 143 49q74 10 185 18 l110 117l-456 -4q-52 6 -29 29q4 6 16 18q9 -2 45 0q170 0 465 14q47 41 95 31q45 -8 30 -41z" />
<glyph unicode="8" horiz-adv-x="720" d="M675 526q-3 -41 -101 -104q-74 -43 -145 -86q47 -105 47 -189q0 -22 -4 -41q-10 -51 -101 -88q-77 -32 -170 -41q-71 -4 -137 19q-49 18 -63 35q-31 37 -31 65q0 21 14 41q29 49 365 221q-14 50 4 160q14 76 88 117q51 29 104 29q43 2 84 -31q50 -41 46 -107zM611 535 q-2 81 -57 83q-45 3 -94.5 -26t-59.5 -78q-12 -51 4 -133q209 121 207 154zM423 154q0 59 -50 159q-358 -163 -352 -223q6 -41 60 -55q32 -10 118 -12q66 -5 140 28q84 39 84 103z" />
<glyph unicode="9" horiz-adv-x="720" d="M667 535q-4 -11 -14 -33q-8 -10 -37 -15l-272 -395q-23 -31 -66 -64.5t-55 -35.5q-31 -2 -31 20q0 11 10 25q7 2 27 16q43 31 119 146q45 67 188 274q-32 -18 -63 -33q-76 -34 -137 -47q-43 -8 -86 -8q-154 0 -144 88q8 64 109 123q112 66 250 68q88 2 180 -56q51 6 65 0 q13 -4 15 -16q2 -14 -8.5 -27.5t-49.5 -29.5zM602 563q-31 62 -107 55q-215 -14 -311 -110q-22 -23 -22 -43q0 -35 88 -35q96 0 229 59q117 54 123 74z" />
<glyph unicode=":" horiz-adv-x="290" d="M306 399q0 -26 -41 -66t-65 -34q-31 29 -31 45q0 53 35 72q51 24 63 24q39 0 39 -41zM175 76q0 -27 -40 -67t-66 -34q-31 29 -31 43q0 56 37 74q49 25 61 25q39 0 39 -41z" />
<glyph unicode=";" horiz-adv-x="299" d="M320 401q0 -26 -45 -69q-37 -39 -60 -33q-35 29 -35 45q0 53 39 72q51 24 64 24q37 0 37 -39zM207 84q-31 -104 -154 -164q-43 -20 -55 -18q-4 2 -4 6q55 45 106 119q15 32 15 49q0 30 16.5 56t40.5 26q43 0 43 -35q0 -14 -8 -39z" />
<glyph unicode="&#x3c;" horiz-adv-x="593" d="M591 524q0 -4 -228.5 -115.5t-228.5 -125.5q0 -13 136 -68q79 -29 157 -59q39 -19 37 -43q-12 -19 -24 -19q-13 0 -56 15q-74 32 -215 84q-45 14 -86 27t-43 24q-6 47 13.5 64.5t78.5 41.5q82 35 107 49q196 105 280 123q72 17 72 2z" />
<glyph unicode="=" horiz-adv-x="595" d="M540 446q-25 -10 -49 -8q-49 2 -174 -12t-168 -25q-55 -14 -74 -10q-8 0 -14 15q-4 16 8 24q20 19 213 37q178 16 213 12q59 -8 45 -33zM509 217q-22 -10 -47 -10q-45 4 -176 -19q-115 -18 -168 -31.5t-72 -9.5q-8 0 -14 23q-4 23 8 31q21 18 213 35q176 14 213 10 q56 -6 43 -29z" />
<glyph unicode="&#x3e;" horiz-adv-x="593" d="M544 377q0 -15 -59 -60q-67 -51 -133 -77q-109 -50 -270 -107q-70 -14 -70 0q0 4 213 105.5t213 115.5q0 17 -137 62q-80 26 -160 53q-37 16 -35 39q12 20 25 20q12 0 55 -16q84 -33 234 -86q45 -14 88 -27q34 -12 36 -22z" />
<glyph unicode="?" horiz-adv-x="483" d="M571 655q0 -67 -136 -211q-55 -57 -184 -145q-98 -68 -94 -88q6 -31 53 -57q16 -9 45 -19q14 -4 14 -14q-40 -25 -79 -10q-84 34 -95 79q-10 60 107 138q41 26 182 141q125 113 125 168q0 20 -14.5 37.5t-65.5 17.5q-82 0 -151 -39q-127 -73 -119 -73q-10 0 -10 18 q0 64 112 117q72 37 154 37q55 0 98 -23q58 -27 58 -74zM183 -10q-4 -19 -25.5 -38.5t-37.5 -19.5t-28.5 17.5t-2.5 34.5q39 69 60 65q41 -22 34 -59z" />
<glyph unicode="@" horiz-adv-x="1697" d="M1517 741q0 -166 -103 -315q-112 -168 -272 -168q-70 0 -121 39t-53 109q-23 -62 -84.5 -105t-124.5 -43q-109 0 -175.5 72.5t-66.5 181.5q0 150 116 279t261 129q135 0 168 -113q53 90 139 94q29 2 29 -24q0 -7 -2 -15l-39 -119q-90 -282 -90 -340q0 -30 23.5 -53.5 t54.5 -23.5q118 0 202 153q70 131 70 260q0 203 -160 324q-145 113 -356 113q-254 0 -447 -175q-196 -180 -196 -432q0 -245 176 -393q164 -137 414 -137q86 0 188 24q133 33 266 121q15 11 27 11q27 0 27 -27q0 -21 -19 -35q-115 -80 -256 -123q-119 -37 -260 -37 q-270 0 -471 160q-217 170 -217 434q0 295 235 494q222 184 525 184q237 0 407 -129q185 -141 185 -375zM1023 752q0 100 -100 100q-101 0 -181 -156q-67 -133 -67 -245q0 -127 110 -127q99 0 175 170q63 143 63 258z" />
<glyph unicode="A" horiz-adv-x="1267" d="M1229 0h-436q-13 0 -15 14q0 17 15 19q43 4 100 14q20 10 20 49q0 37 -32 115l-72 168h-461q-94 -238 -94 -270q0 -46 37 -62q6 -4 84 -14q12 -2 12 -19q2 -14 -12 -14h-344q-11 0 -11 14q-2 17 11 19q82 12 137 112l76 174l354 834q12 23 31 23q16 0 26 -23l426 -967 q43 -98 70 -121.5t78 -31.5q12 -2 12 -19q0 -14 -12 -14zM784 451l-190 452q-4 12 -14 10q-9 0 -13 -10l-186 -452h403z" />
<glyph unicode="B" horiz-adv-x="1171" d="M1039 322q0 -322 -438 -322h-532q-27 0 -27 18q0 23 27 23q63 2 96 30.5t33 129.5v755q0 97 -31 125q-21 19 -31 23q-20 8 -67 10q-31 0 -31 23q0 22 31 22h452q459 0 459 -301q0 -123 -86 -188q-49 -35 -147 -60q292 -69 292 -288zM802 852q0 158 -129 213 q-70 29 -215 29q-51 0 -64 -7q-18 -10 -18 -55v-393l168 2q258 2 258 211zM839 315q0 254 -379 254h-51q-7 0 -33 2v-436q0 -53 49 -67q20 -5 96 -5q318 0 318 252z" />
<glyph unicode="C" horiz-adv-x="1171" d="M1110 195q-49 -70 -143 -129q-148 -95 -322 -95q-268 0 -435 165t-167 431q0 256 164 430q170 183 481 183q209 0 309 -60q74 -43 80 -151l13 -183q0 -24 -27 -24q-25 0 -35 24q-33 82 -43 105q-22 53 -47 84q-109 135 -272 135q-209 0 -322 -176q-96 -148 -96 -371 q0 -213 108 -356q119 -158 326 -158q137 0 252 66q90 51 145 112q11 13 23 13q18 0 18 -23q0 -10 -10 -22z" />
<glyph unicode="D" horiz-adv-x="1267" d="M1203 575q0 -129 -53 -247q-150 -328 -635 -328h-463q-26 0 -26 18q0 23 26 23q64 2 96.5 30.5t32.5 129.5v755q0 97 -30 125q-21 19 -31 23q-21 8 -68 10q-30 0 -30 23q0 22 30 22h449q311 0 493 -131q209 -149 209 -453zM1011 573q0 254 -147.5 387.5t-401.5 133.5 q-55 0 -74 -9q-29 -12 -29 -61v-889q0 -47 33 -61q19 -8 76 -8q256 0 395 120q148 131 148 387z" />
<glyph unicode="E" horiz-adv-x="1073" d="M1043 276l-51 -204q-18 -72 -104 -72h-830q-26 0 -26 18q0 21 26 25q56 10 85.5 34.5t29.5 123.5v755q0 95 -29 123q-20 21 -86 35q-22 4 -22 29q0 16 22 16h748q65 0 92 4q51 11 51 -37l8 -219q3 -24 -16 -24q-20 0 -29 24q-16 47 -30 94q-17 41 -35 58q-45 33 -201 33 h-237q-35 0 -46.5 -11.5t-11.5 -48.5v-391h271q112 0 143 35q25 24 49 115q8 26 25 26q16 0 16 -26v-359q0 -24 -16 -24q-19 0 -25 18q-24 88 -49 115q-31 32 -143 32h-271v-434q0 -63 92 -73q-24 2 140 2q178 0 264 38q70 33 151 191q9 14 23 14q31 0 22 -35zM538 1159z " />
<glyph unicode="F" horiz-adv-x="976" d="M963 907q0 -24 -19 -24q-18 0 -26 24q-17 47 -31 94q-17 41 -35 58q-45 33 -201 33h-241q-35 0 -46.5 -11.5t-11.5 -48.5v-391h252q113 0 144 35q22 24 49 115q8 26 22 26q19 0 19 -26v-359q0 -24 -17 -24q-18 0 -24 18q-25 86 -53.5 116.5t-139.5 30.5h-252v-374 q0 -101 31 -125q25 -21 100 -35q27 -4 27 -23q0 -16 -27 -16h-440q-27 0 -27 16q0 19 27 23q76 14 103.5 36.5t27.5 123.5v757q0 95 -29 123q-14 17 -106 35q-21 4 -21 29q0 16 21 16h772q63 0 92 4q51 11 51 -37zM539 1159z" />
<glyph unicode="G" horiz-adv-x="1267" d="M1217 541q-46 -4 -68 -23q-37 -26 -37 -112v-238q0 -96 -180 -152q-135 -41 -262 -41q-271 0 -445 160q-182 166 -182 432q0 246 154 420q170 193 473 193q227 0 342 -70q69 -43 75 -141l13 -183q0 -24 -25 -24q-20 0 -31 24q-57 146 -94 195q-96 129 -274 129 q-219 0 -332 -172q-94 -145 -94 -377q0 -217 110 -358q121 -156 332 -156q49 0 123 16q86 19 113 43q14 15 14 46v233q0 100 -28.5 125t-106.5 31q-21 2 -21 20q0 21 21 21h410q16 0 16 -21q0 -18 -16 -20z" />
<glyph unicode="H" horiz-adv-x="1267" d="M1205 0h-442q-27 0 -27 16q0 19 27 23q78 14 103.5 35.5t25.5 103.5v373h-533v-373q0 -78 29 -101.5t105 -37.5q26 -4 26 -23q0 -16 -26 -16h-441q-26 0 -26 16q0 19 26 23q76 14 102.5 36.5t26.5 102.5v803q0 82 -26.5 104.5t-102.5 34.5q-26 6 -26 23q0 16 26 16h441 q26 0 26 -16q0 -17 -26 -23q-76 -12 -105 -36.5t-29 -102.5v-352h533v352q0 84 -25.5 105.5t-103.5 33.5q-27 6 -27 23q0 16 27 16h442q27 0 27 -16q0 -17 -27 -23q-78 -12 -102 -35q-31 -24 -31 -104v-803q0 -78 31 -104q24 -21 102 -35q27 -4 27 -23q0 -16 -27 -16z" />
<glyph unicode="I" horiz-adv-x="585" d="M517 0h-463q-26 0 -26 16q0 19 26 23q95 16 115 35q29 22 29 104v803q0 82 -29 104q-20 19 -115 35q-26 6 -26 23q0 16 26 16h463q29 0 29 -16q0 -17 -29 -23q-86 -14 -108 -35q-31 -26 -31 -104v-803q0 -78 31 -104q22 -21 108 -35q29 -4 29 -23q0 -16 -29 -16z" />
<glyph unicode="J" horiz-adv-x="684" d="M631 1120q-88 -14 -111 -35q-33 -26 -33 -104v-655q0 -152 -71 -244q-78 -102 -223 -102q-64 0 -115 28q-60 33 -60 92q0 88 82 88q54 0 88.5 -72.5t59.5 -72.5q61 0 61 133v805q0 82 -25.5 102.5t-117.5 36.5q-29 6 -29 23q0 16 29 16h465q26 0 26 -16q0 -17 -26 -23z " />
<glyph unicode="K" horiz-adv-x="1267" d="M1214 0h-485q-27 0 -27 16q0 19 27 21q102 4 102 41q0 39 -59 102l-344 375l-57 -37v-340q0 -78 30 -104q23 -21 111 -35q27 -4 27 -23q0 -16 -27 -16h-465q-27 0 -27 16q0 19 27 23q94 16 118.5 36.5t24.5 102.5v803q0 82 -24.5 102.5t-118.5 36.5q-27 6 -27 23 q0 16 27 16h465q27 0 27 -16q0 -17 -27 -23q-88 -14 -111 -35q-30 -24 -30 -104v-371q108 78 372 346q78 80 78 121q0 39 -116 47q-27 2 -27 19q0 16 27 16h425q27 0 27 -16q0 -17 -27 -23q-92 -14 -135 -43q-37 -20 -174 -162q-110 -114 -264 -256l461 -491q35 -37 102 -96 q27 -21 94 -33q27 -4 27 -23q0 -16 -27 -16z" />
<glyph unicode="L" horiz-adv-x="1073" d="M1049 289l-68 -234q-16 -55 -70 -55h-866q-27 0 -27 16q0 19 27 23q76 14 102.5 36.5t26.5 102.5v803q0 82 -26.5 104.5t-102.5 34.5q-27 6 -27 23q0 16 27 16h451q26 0 26 -16q0 -17 -26 -23q-86 -14 -111 -35q-33 -26 -33 -104v-842q0 -59 54 -65q38 -6 124 -6 q218 0 289 28q105 43 187 207q12 25 26 25q27 0 17 -39z" />
<glyph unicode="M" horiz-adv-x="1560" d="M1497 0h-453q-26 0 -26 16q0 19 26 23q86 14 113 36.5t27 102.5l-2 819l-424 -946q-15 -31 -37 -31q-21 0 -33 27l-422 909v-714q0 -129 45 -168q25 -21 111 -35q27 -4 27 -23q0 -16 -27 -16h-387q-27 0 -27 16q0 19 27 23q94 16 117 35q38 32 38 168v727 q0 86 -29.5 114.5t-117.5 34.5q-18 2 -18 21q0 20 18 20h279q49 0 77 -63l365 -789q14 -33 29 2l346 787q26 63 80 63h276q14 0 16 -18q2 -21 -16 -23q-82 -12 -104 -35q-29 -30 -29 -114v-791q0 -76 33 -104q24 -21 102 -35q29 -4 29 -23q0 -16 -29 -16z" />
<glyph unicode="N" horiz-adv-x="1267" d="M1229 1120q-94 -16 -117 -35q-39 -32 -39 -147v-915q0 -29 -24 -29q-17 0 -27 14l-735 907q-21 25 -21 -4v-669q0 -129 45 -168q25 -21 111 -35q27 -4 27 -23q0 -16 -27 -16h-387q-27 0 -27 16q0 19 27 23q94 16 117 35q38 32 38 168v778q0 12 -24 39q-16 16 -55 45 q-27 10 -68 14q-18 2 -18 21q0 20 18 20h240q39 0 77 -49l619 -770q18 -23 18 2v596q0 111 -45 147q-20 19 -108 35q-27 4 -27 23q0 16 27 16h385q26 0 26 -16q0 -19 -26 -23z" />
<glyph unicode="O" horiz-adv-x="1267" d="M1202 580q0 -261 -155 -430q-162 -175 -418 -175q-258 0 -418 172t-160 433q0 260 159 432t419 172q258 0 415.5 -172t157.5 -432zM1004 580q0 219 -78 360q-97 180 -297 180q-201 0 -299 -180q-78 -143 -78 -360q0 -218 78 -361q98 -180 299 -180q200 0 297 180 q78 141 78 361zM629 1184z" />
<glyph unicode="P" horiz-adv-x="976" d="M950 846q0 -184 -143 -273q-111 -67 -315 -67h-70q-45 2 -70 2v-309q0 -101 31 -125q23 -21 106 -35q27 -4 27 -23q0 -16 -27 -16h-440q-26 0 -26 16q0 19 26 23q70 12 99.5 37.5t29.5 122.5v757q0 91 -33 123q-14 17 -106 35q-21 4 -21 29q0 16 21 16h453q182 0 305 -65 q153 -82 153 -248zM760 840q0 254 -328 254q-47 0 -59 -7q-21 -12 -21 -53v-454q68 -7 90 -7q125 0 193 33q125 66 125 234z" />
<glyph unicode="Q" horiz-adv-x="1267" d="M1202 580q0 -232 -117 -385q-122 -162 -346 -205q107 -154 256 -217q80 -33 191 -33q24 0 24 -27q0 -24 -24 -24h-33q-412 0 -618 221q-78 82 -86 86l-23 10q-141 66 -225 154q-150 162 -150 420q0 260 159 432t419 172q256 0 418 -174q155 -170 155 -430zM1004 580 q0 219 -78 360q-97 180 -297 180q-201 0 -299 -180q-78 -143 -78 -360q0 -218 78 -361q98 -180 299 -180q200 0 297 180q78 141 78 361z" />
<glyph unicode="R" horiz-adv-x="1171" d="M1128 0h-174q-96 0 -166 90l-342 449l-98 -4v-336q0 -101 31 -125q22 -21 106 -35q27 -4 27 -23q0 -16 -27 -16h-436q-26 0 -26 16q0 19 26 23q80 14 100.5 43t20.5 117v757q0 97 -27 123q-16 17 -104 35q-21 4 -21 29q0 16 21 16h467q444 0 444 -307q0 -246 -315 -293 l360 -444q21 -27 68 -52q31 -18 65 -24q23 -4 23 -23q0 -16 -23 -16zM760 854q0 238 -303 238q-62 0 -76 -5q-33 -10 -33 -57v-432q191 8 273 41q139 57 139 215z" />
<glyph unicode="S" horiz-adv-x="976" d="M862 299q0 -137 -104.5 -229.5t-286.5 -92.5q-131 0 -270 37q-62 19 -74 107l-35 215q-4 31 23 31q20 0 26 -15q47 -125 115 -211q76 -98 221 -98q92 0 149.5 55.5t57.5 145.5q0 86 -61 147q-39 41 -170 121l-150 92q-182 115 -182 270q0 134 88 222t254 88 q188 0 270 -64q64 -49 70 -121l18 -188q4 -27 -24 -27q-25 0 -31 19q-55 182 -143 244q-95 65 -168 65q-74 0 -126.5 -43t-52.5 -117q0 -112 168 -217l154 -94q129 -80 182 -137q82 -90 82 -205z" />
<glyph unicode="T" horiz-adv-x="1073" d="M1033 889q0 -25 -18 -25q-17 0 -27 25q-45 133 -87 164.5t-177 31.5h-51q-35 0 -45.5 -11t-10.5 -48v-827q0 -101 29 -125q21 -17 125 -35q27 -4 27 -23q0 -16 -27 -16h-479q-29 0 -29 16q0 19 29 23q100 18 121 35q28 24 28 125v827q0 37 -10 48t-47 11h-49 q-135 0 -177 -31.5t-87 -164.5q-11 -25 -29 -25t-16 25l6 237q2 48 53 37q27 -4 90 -4h707q65 0 92 4q51 11 51 -37z" />
<glyph unicode="U" horiz-adv-x="1267" d="M1213 1120q-77 -12 -104 -35q-37 -30 -37 -219v-422q0 -180 -55 -282q-105 -187 -391 -187q-445 0 -445 447v559q0 82 -26.5 104.5t-102.5 34.5q-26 6 -26 23q0 16 26 16h441q26 0 26 -16q0 -17 -26 -23q-76 -12 -105 -36.5t-29 -102.5v-571q0 -357 306 -357 q215 0 288 146q41 80 41 245v422q0 189 -37 219q-24 23 -102 35q-27 6 -27 23q0 16 27 16h358q27 0 27 -16q0 -17 -27 -23z" />
<glyph unicode="V" horiz-adv-x="1267" d="M1203 1118q-37 -14 -57 -28q-47 -35 -74 -103l-391 -987q-6 -14 -23 -14q-16 -2 -24 14l-459 1016q-29 61 -61 82q-23 12 -72 20q-18 2 -18 21q0 20 18 20h440q15 0 17 -18q0 -19 -15 -21q-55 -8 -71 -12q-35 -10 -41 -25q-17 -32 10 -90l326 -731l278 737q17 41 -8 86 q-12 23 -92 35q-15 2 -15 21q0 18 17 18h311q21 0 21 -20q0 -15 -17 -21z" />
<glyph unicode="W" horiz-adv-x="1656" d="M1622 1118q-29 -10 -59 -20q-52 -29 -74 -97l-348 -1001q-6 -18 -21 -18q-12 0 -18 18l-277 717l-266 -717q-6 -18 -18 -18q-13 0 -21 18l-338 934q-61 170 -155 184q-19 2 -19 21q0 20 19 20h393q14 0 16 -18q0 -19 -12 -21q-49 -8 -64 -12q-24 -6 -30 -18 q-15 -29 12 -97l256 -659l184 487q0 25 -77 201q-27 59 -66 80q-16 8 -76 16q-16 2 -16 21q0 20 16 20h441q16 0 16 -18q2 -19 -12 -21q-56 -8 -72 -12q-35 -10 -41 -25q-14 -32 6 -90l260 -669l248 675q14 39 -10 86q-13 23 -92 35q-15 2 -15 21q0 18 15 18h313 q18 0 18 -20q0 -15 -16 -21z" />
<glyph unicode="X" horiz-adv-x="1267" d="M1220 0h-494q-14 0 -16 18q0 19 14 21l74 12t43 21q16 37 -35 114l-217 318l-244 -307q-43 -56 -43 -97q0 -37 35 -49q8 -2 68 -12q14 -2 14 -21q0 -18 -17 -18h-360q-18 0 -18 18q0 17 16 23q27 4 80 27q45 28 141 149l285 350l-254 369q-80 115 -143 154q-33 20 -95 28 q-18 2 -18 21q0 20 18 20h502q14 0 16 -18q0 -19 -14 -21q-35 -6 -71.5 -12t-43.5 -21q-20 -45 15 -94l198 -284l220 258q45 53 45 92q0 35 -37 49q-11 2 -68 12q-14 2 -14 21q0 18 14 18h383q21 0 21 -20q0 -15 -17 -21q-22 2 -90 -12q-51 -23 -123 -111l-284 -352 l284 -414q80 -116 139 -157q35 -25 91 -31q18 -4 18 -21q0 -20 -18 -20z" />
<glyph unicode="Y" horiz-adv-x="1267" d="M1220 1118q-121 -33 -195 -141l-295 -447v-331q0 -105 22.5 -123.5t129.5 -36.5q26 -4 26 -23q0 -16 -26 -16h-482q-26 0 -26 16q0 19 26 23q101 18 121 35q31 24 31 125v315l-289 422q-80 117 -129 154q-29 20 -80 28q-18 2 -18 21q0 20 18 20h465q15 0 17 -18 q0 -19 -15 -21q-59 -10 -65 -10q-29 -8 -35 -23q-21 -43 12 -94l260 -385l230 359q41 65 41 96q0 33 -39 45q-8 4 -64 12q-14 2 -14 21q0 18 14 18h355q20 0 20 -20q0 -17 -16 -21z" />
<glyph unicode="Z" horiz-adv-x="1073" d="M1043 291l-30 -236q-8 -55 -78 -55h-868q-37 0 -37 29q0 14 12 30l739 1033h-424q-125 0 -172 -52q-55 -59 -77 -153q-7 -25 -31 -25q-21 0 -19 29l25 213q6 53 59 53h815q37 0 37 -33q0 -12 -6 -22l-733 -1034h408q182 0 239 53q66 57 98 178q7 25 27 25q21 0 16 -33z " />
<glyph unicode="[" horiz-adv-x="612" d="M635 825q-88 -16 -151 -22q-45 -80 -176 -455q-29 -82 -224 -528q33 2 112 9t87 3q51 4 104 -6q-8 -21 -24 -25q-115 -24 -256 -43q-31 -4 -82 -12q-21 -4 -23 -2q-6 2 -12 18q-6 15 11.5 36.5t17.5 23.5q110 237 250 571q69 191 151 418q17 49 47 47q9 -2 119 12 q121 15 148 9q18 -2 18 -7l-10 -14t-107 -33z" />
<glyph unicode="\" horiz-adv-x="563" d="M555 -4h-174l-381 1198l184 2z" />
<glyph unicode="]" horiz-adv-x="602" d="M716 838q9 -23 -8 -31q-35 0 -41 -19q-90 -227 -209 -550q-59 -175 -129 -385q-16 -50 -47 -48q-59 7 -112 0q-41 -4 -78 -14q-25 -6 -39 -4q-33 6 -33 33q0 8 6 10q129 33 244 43q20 35 153 410q29 82 193 508q-39 0 -125 -7q-25 -2 -54.5 -13t-35.5 -9q-23 12 -27 33 q4 10 13 16q22 31 208 31q21 0 82 12q29 6 39 -16z" />
<glyph unicode="^" horiz-adv-x="960" d="M892 467h-137l-275 582l-278 -582h-137l366 758q17 35 47 35q31 0 47 -35z" />
<glyph unicode="_" horiz-adv-x="1024" d="M1024 -229h-1024v90h1024v-90z" />
<glyph unicode="`" horiz-adv-x="682" d="M447 1045l-55 -9l-274 354h223z" />
<glyph unicode="a" horiz-adv-x="968" d="M948 76q-22 -27 -57 -49q-60 -39 -121 -39q-133 0 -141 151q-187 -153 -324 -153q-94 0 -159.5 61.5t-65.5 155.5q0 147 156 243q94 60 391 166v86q0 103 -23 144q-35 67 -149 67q-56 0 -99 -22q-55 -29 -55 -78q0 -14 5 -40t5 -40q0 -90 -92 -90q-41 0 -69.5 26.5 t-28.5 67.5q0 111 133 174q108 54 229 54q207 0 281 -130q39 -69 39 -202v-406q0 -59 8 -82q14 -39 57 -39q35 0 56 13q12 8 22 8q17 0 17 -17q0 -14 -15 -30zM627 240v321q-357 -112 -357 -291q0 -69 43 -116.5t113 -47.5q66 0 127 33q74 41 74 101zM485 961z" />
<glyph unicode="b" horiz-adv-x="1036" d="M967 459q0 -223 -126 -350t-343 -127q-150 0 -262.5 44t-112.5 85v981q0 24 -43 22q-17 0 -35 -2q-12 -2 -14 8t4 15q90 51 137 86q33 22 92 69q12 10 25 4q12 -6 12 -18v-471q92 115 289 115q158 0 267.5 -123t109.5 -338zM784 446q0 203 -86 295q-75 84 -194 84 q-105 0 -160 -61q-47 -53 -47 -137v-469q8 -52 80 -74q53 -16 112 -16q132 0 209 90q86 98 86 288z" />
<glyph unicode="c" horiz-adv-x="940" d="M872 299q-53 -137 -157 -223q-115 -94 -256 -94q-185 0 -299 135q-111 127 -111 313q0 207 135 351.5t342 144.5q103 0 199 -49q119 -60 119 -152q0 -88 -99 -88q-79 0 -104 90l-10 47q-25 94 -137 94q-136 0 -213 -114q-68 -101 -68 -242q0 -154 86 -264 q94 -119 246 -119q86 0 170 61q71 54 108 125q13 23 29 23q22 0 22 -25q0 -6 -2 -14z" />
<glyph unicode="d" horiz-adv-x="1058" d="M1051 74q-21 -25 -58 -47q-57 -39 -137 -39q-106 0 -133 100q-82 -108 -246 -108q-207 0 -307 129q-107 141 -107 346q0 225 103 340q110 125 272 125q178 0 283 -97v269q0 24 -45 22q-14 0 -35 -2q-12 -2 -14 8t4 15q92 51 139 86q29 20 84 69q10 10 23 4q14 -6 14 -18 v-1098q0 -80 82 -80q33 0 51 15q12 6 23 6q16 0 16 -17q0 -12 -12 -28zM719 199v456q0 82 -63.5 126t-139.5 44q-113 0 -192.5 -86t-79.5 -297q0 -229 112 -321q66 -53 168 -53q142 0 195 131z" />
<glyph unicode="e" horiz-adv-x="940" d="M877 266q-60 -127 -176.5 -209t-251.5 -82q-189 0 -302 140q-106 131 -106 321q0 203 121 344.5t323 141.5q146 0 252.5 -93.5t106.5 -187.5q0 -86 -101 -86h-550q8 -182 83 -297q91 -139 259 -139q172 0 296 172q17 20 33 20q35 0 13 -45zM629 682q-37 168 -203 168 q-100 0 -164 -74q-53 -63 -63 -160h376q66 0 54 66zM471 922z" />
<glyph unicode="f" horiz-adv-x="749" d="M737 1116q0 -33 -18 -53q-25 -27 -62 -27q-30 0 -51 19q-16 12 -47 61q-27 74 -90 74q-82 0 -82 -158v-164h244q6 0 10 -10q2 -10 -2 -16q-41 -43 -111 -43h-139v-613q0 -98 37 -120q18 -15 143 -31q21 -4 21 -19q0 -16 -21 -16h-534q-17 0 -17 14q2 17 17 19 q133 16 155.5 46t22.5 107v613h-82q-72 0 -111 43q-6 6 -2 16q5 10 13 10h182q0 154 27 213q71 166 268 166q90 0 164 -35q65 -32 65 -96z" />
<glyph unicode="g" horiz-adv-x="1058" d="M1004 823q-37 -41 -103 -41h-86q47 -102 47 -180q0 -135 -114 -221q-105 -78 -246 -78q-33 0 -94 8q-31 0 -79 -48t-48 -79q0 -55 178 -55q262 0 360 -29q156 -47 156 -198q0 -162 -203 -260q-166 -80 -348 -80q-117 0 -225 43q-144 57 -144 159q0 117 211 240 q-51 19 -71 35q-52 37 -52 80q0 102 199 211q-92 28 -145.5 103t-53.5 171q0 144 115 236q109 86 254 86q59 0 169 -34t173 -34q20 0 63.5 2t63.5 2h14q11 0 15 -12t-6 -27zM680 510q20 117 -12 217q-41 125 -146 143q-18 2 -33 2q-129 0 -159 -182q-21 -110 16 -209 q41 -116 146 -135q153 -27 188 164zM915 -131q0 65 -86 88q-34 8 -284 16q-27 0 -78 2q-23 2 -74 9q-16 2 -51 8q-53 -25 -93 -80t-40 -94q0 -146 319 -146q129 0 238 39q149 51 149 158zM530 926z" />
<glyph unicode="h" horiz-adv-x="1058" d="M1018 0h-420q-16 0 -16 14q0 17 16 19q86 10 111 51q16 31 16 102v398q0 98 -46 155.5t-132 57.5q-105 0 -213 -109v-502q0 -100 34.5 -122.5t88.5 -28.5q18 -4 18 -19q0 -16 -18 -16h-420q-17 0 -17 14q0 17 17 19q69 8 96 45q23 26 23 108v906q0 24 -43 22 q-15 0 -35 -2q-12 -2 -15 8q-2 10 5 15q92 51 138 84.5t87 70.5q10 10 24 4q13 -6 13 -18v-496q135 125 293 125q127 0 202.5 -89t75.5 -230v-400q0 -98 35 -120q16 -13 82 -31q18 -4 18 -19q0 -16 -18 -16z" />
<glyph unicode="i" horiz-adv-x="608" d="M391 1139q0 -43 -31.5 -73t-74.5 -30q-45 0 -77 30t-32 73q0 45 32 73.5t77 28.5q43 0 74.5 -28.5t31.5 -73.5zM547 57q-23 -26 -55 -49q-60 -37 -136 -37q-125 0 -125 158v602q0 88 -67 88q-21 0 -39 -8q-41 -16 -45 -16q-21 0 -21 18q0 35 91 72q81 35 120 35 q138 0 138 -154v-610q0 -39 8 -54q12 -20 53 -20q33 0 53 12q10 8 21 8q18 0 18 -16q0 -12 -14 -29z" />
<glyph unicode="j" horiz-adv-x="587" d="M428 1139q0 -43 -30.5 -73t-75.5 -30q-43 0 -76 30t-33 73q0 45 31.5 73.5t77.5 28.5q45 0 75.5 -28.5t30.5 -73.5zM434 0q0 -170 -45 -264q-82 -176 -315 -176q-68 0 -123 22q-74 29 -74 86q0 35 25.5 58.5t60.5 23.5q49 0 105.5 -61.5t89.5 -61.5q65 0 88 72 q14 41 14 143q2 68 2 181v708q0 88 -84 88q-20 0 -41 -8q-39 -16 -47 -16q-18 0 -18 18q0 35 90 72q82 35 123 35q149 0 149 -154v-766z" />
<glyph unicode="k" horiz-adv-x="1058" d="M1040 0h-428q-16 0 -16 16q2 15 16 15q43 0 68 18q12 10 -27 60l-313 389v-312q0 -98 37 -120q18 -13 34.5 -19t69.5 -12q21 -4 21 -19q0 -16 -21 -16h-461q-16 0 -16 14q2 17 16 19q105 12 127 51q19 31 19 102v854q0 80 -23.5 111t-81.5 43q-14 4 -16 18q0 15 16 15 h379q21 0 21 -17q0 -14 -21 -18q-28 -8 -64 -31.5t-36 -120.5v-477q0 -35 31 -10l262 219q24 23 37.5 42.5t7.5 33.5q-12 24 -90 24q-15 0 -15 17q-2 14 15 14h397q19 0 19 -16q0 -15 -19 -17q-90 -8 -129 -22q-68 -27 -168 -111l-201 -170l299 -364q70 -84 146 -133 q22 -15 35 -21q22 -8 73 -14q19 -4 19 -19q0 -16 -19 -16z" />
<glyph unicode="l" horiz-adv-x="505" d="M438 57q-20 -26 -55 -49q-59 -37 -135 -37q-125 0 -125 158v963q0 24 -43 22q-17 0 -35 -2q-12 -2 -14 8t4 15q90 51 137 86q33 22 92 69q10 10 23 4q12 -6 12 -18v-1120q0 -39 8 -54q12 -20 53 -20q35 0 54 12q12 8 22 8q17 0 17 -16q0 -12 -15 -29z" />
<glyph unicode="m" horiz-adv-x="1646" d="M1606 0h-420q-17 0 -15 14q0 17 15 19q94 12 119 51q18 31 18 102v435q0 194 -168 194q-94 0 -213 -108l-22 -21q2 -20 2 -43v-457q0 -100 33.5 -121.5t101.5 -29.5q18 -4 18 -19q0 -16 -18 -16h-439q-14 0 -14 14q0 17 14 19q78 10 108 47t30 106v361q0 153 -47 215 q-39 53 -134 53q-118 0 -217 -108v-521q0 -100 35 -122.5t92 -28.5q19 -4 19 -19q0 -16 -19 -16h-422q-16 0 -16 14q2 17 16 19q70 8 99 45q20 26 20 108v568q0 73 -57 73q-10 0 -22.5 -3t-34.5 -13q-7 -2 -11 -2q-12 0 -18 10q-4 12 2 23q14 20 65 45q64 31 127 31 q121 0 121 -136v-2q135 144 316 144q186 0 237 -168l29 24q137 144 313 144q244 0 244 -281v-457q0 -100 33 -120q14 -13 80 -31q20 -4 20 -19q0 -16 -20 -16z" />
<glyph unicode="n" horiz-adv-x="1058" d="M1016 0h-420q-16 0 -14 14q0 17 14 19q86 10 111 51q18 31 18 102v435q0 194 -160 194q-114 0 -213 -108v-521q0 -100 35 -122.5t86 -28.5q21 -4 21 -19q0 -16 -21 -16h-422q-14 0 -14 14q0 17 14 19q70 8 99 45q20 26 20 108v568q0 73 -57 73q-11 0 -22 -3t-34 -13 q-6 -2 -12 -2q-10 0 -16 10q-4 12 2 23q12 20 65 45q62 31 127 31q123 0 123 -136v-2q135 144 313 144q242 0 242 -281v-457q0 -100 35 -120q14 -13 80 -31q18 -4 18 -19q0 -16 -18 -16z" />
<glyph unicode="o" horiz-adv-x="1056" d="M993 434q0 -201 -135 -333t-332 -132q-207 0 -340 137.5t-133 350.5q0 200 133 332.5t334 132.5q217 0 345 -134.5t128 -353.5zM795 385q2 27 2 53q0 152 -60 262q-73 131 -211 144q-125 12 -200 -103q-62 -94 -74 -233q-4 -29 -4 -59q0 -160 59 -271q74 -137 215 -137 q123 0 199 117q63 94 74 227zM530 922z" />
<glyph unicode="p" horiz-adv-x="1056" d="M993 449q0 -199 -108 -340q-99 -129 -307 -129q-158 0 -240 108v-340q0 -98 30.5 -118.5t114.5 -32.5q19 -5 19 -19q0 -16 -19 -16h-456q-17 0 -15 14q0 16 15 18q88 11 112 52q19 30 19 102v1020q0 74 -54 74q-10 0 -21 -4t-34 -15q-6 -2 -12 -2q-10 0 -17 10 q-4 11 3 23q12 20 65 45q62 31 125 31q123 0 123 -135q86 125 282 125q162 0 273 -125q102 -117 102 -346zM813 449q0 204 -80 290t-192 86q-78 0 -140.5 -44t-62.5 -126v-456q51 -131 194 -131q136 0 203 90q78 102 78 291z" />
<glyph unicode="q" horiz-adv-x="1054" d="M1044 -438h-477q-14 0 -14 14q0 16 14 18q103 13 127.5 44.5t24.5 109.5v340q-84 -108 -246 -108q-207 0 -307 129q-109 141 -109 352q0 217 103 334q112 125 272 125q182 0 285 -97q31 41 78 74t75 33q29 0 29 -31v-1151q0 -98 35 -121q29 -18 110 -30q19 -5 19 -19 q0 -16 -19 -16zM715 199v456q0 80 -64.5 125t-138.5 45q-115 0 -194.5 -86t-79.5 -290q0 -236 112 -328q66 -53 168 -53q144 0 197 131z" />
<glyph unicode="r" horiz-adv-x="714" d="M715 819q0 -94 -88 -94q-37 0 -81 35t-61 35q-47 0 -94 -61.5t-47 -108.5v-439q0 -98 35 -120q24 -17 127 -31q18 -4 18 -19q0 -16 -18 -16h-479q-17 0 -17 14q2 17 17 19q94 12 119.5 44t23.5 109v545q0 92 -61 92q-17 0 -33 -6q-41 -16 -47 -16q-21 0 -21 20 q0 10 12 21q86 78 191 78q123 0 129 -154l2 -27q139 187 254 187q49 0 84 -29t35 -78z" />
<glyph unicode="s" horiz-adv-x="823" d="M737 236q0 -125 -110 -195q-92 -57 -224 -57q-114 0 -213 51q-108 57 -108 141q0 68 76 68q65 0 78 -78q8 -47 62 -90t105 -43q185 0 185 137q0 74 -76 131q-25 18 -158 88q-151 82 -202 150q-46 55 -46 143q0 109 85 179.5t210 70.5q115 0 195 -45q90 -51 90 -135 q0 -68 -72 -68q-65 0 -75 68q-19 129 -144 129q-71 0 -114 -40t-43 -98q0 -104 194 -190q305 -139 305 -317z" />
<glyph unicode="t" horiz-adv-x="587" d="M571 111q-51 -70 -114.5 -99.5t-118.5 -29.5q-188 0 -188 258v559h-113q-29 14 -6 28q112 68 256 297q8 15 22 15q23 0 23 -19v-252h196q9 0 13 -10q2 -10 -2 -16q-41 -43 -113 -43h-100v-531q0 -180 110 -180q64 0 107 49q6 10 14 10q18 0 18 -22q0 -8 -4 -14z" />
<glyph unicode="u" horiz-adv-x="1058" d="M1022 74q-21 -25 -55 -47q-60 -39 -119 -39q-55 0 -93 36.5t-38 102.5v31q-158 -176 -316 -176q-114 0 -181.5 72.5t-67.5 189.5v512q0 71 -56 71q-12 0 -23.5 -3t-33.5 -13q-6 -2 -12 -2q-19 0 -19 20q0 7 2 13q15 20 66 45q63 31 129 31q123 0 123 -136v-501 q0 -183 159 -183q115 0 215 113v543q0 73 -55 73q-12 0 -23.5 -3t-33.5 -13q-6 -2 -12 -2q-11 0 -17 10q-4 12 2 23q15 20 66 45q63 31 129 31q123 0 123 -136v-604q0 -80 63 -80q33 0 53 15q11 6 21 6q18 0 18 -17q0 -12 -14 -28z" />
<glyph unicode="v" horiz-adv-x="1058" d="M993 879q-37 -9 -51 -23q-20 -22 -59 -115l-310 -727q-14 -32 -28 -32q-15 0 -33 38l-324 734q-32 75 -67 102q-21 14 -66 23q-18 2 -18 16q0 16 18 16h383q17 0 19 -14q0 -14 -15 -16q-69 -11 -82 -33q-12 -27 17 -96l217 -508l205 499q26 68 12 99q-16 28 -82 39 q-14 2 -12 16q0 14 16 14h260q19 0 19 -16q0 -14 -19 -16z" />
<glyph unicode="w" horiz-adv-x="1529" d="M1452 879q-35 -15 -84 -131l-317 -750q-7 -18 -17 -18q-12 6 -14 10l-234 549l-272 -547q-6 -12 -14 -12q-13 6 -15 10l-331 774q-31 74 -47.5 91t-51.5 24q-18 2 -18 16q0 16 18 16h355q14 0 16 -14t-12 -16q-66 -11 -78 -33q-19 -35 12 -109l203 -499l188 391 q0 22 -51 137q-29 66 -57 88q-19 16 -58 23q-20 2 -20 16q0 16 20 16h394q16 0 18 -14q0 -14 -14 -16q-88 -15 -101 -39q-16 -39 9 -103l196 -487l209 491q29 66 10 101q-12 26 -73 37q-15 2 -15 16t17 14h227q20 0 20 -14q0 -12 -18 -18z" />
<glyph unicode="x" horiz-adv-x="1058" d="M997 0h-401q-16 0 -16 14q0 15 16 17q25 4 51 8q12 4 21 18q4 6 4 17q0 30 -47 98l-158 221l-160 -235q-55 -80 -51 -99q6 -18 74 -28q14 -2 14 -17q0 -14 -16 -14h-273q-20 0 -20 18q0 13 16 17q55 16 74 28q35 29 113 136l194 266l-207 297q-51 76 -84 94q-14 8 -71 16 q-19 2 -19 17q0 18 19 18h405q17 0 19 -16q0 -14 -15 -17l-51 -8q-31 -10 -31 -37q0 -22 45 -94l82 -129l115 164q31 47 25 72q-7 22 -64 32q-14 3 -14 17q0 16 16 16h295q21 0 21 -18q0 -15 -17 -17q-57 -10 -80 -22q-49 -25 -100 -94l-156 -211l258 -367q62 -88 97 -117 q28 -20 77 -26q19 -4 19 -19q0 -16 -19 -16zM-354 444z" />
<glyph unicode="y" horiz-adv-x="1058" d="M993 874q-37 -8 -51 -22q-18 -23 -55 -115l-309 -774q-74 -186 -125 -262q-99 -141 -234 -141q-63 0 -106 26q-54 31 -54 88q0 90 109 90q27 0 80 -18t76 -18q53 0 122 125q64 114 64 174q0 20 -10 43l-332 678q-37 75 -66 100q-16 16 -55 22q-18 4 -18 21q0 18 18 18 h402q16 0 16 -16q2 -19 -12 -21q-43 -4 -58 -8q-37 -10 -47 -28q-14 -25 17 -91l241 -512l195 515q24 61 10 90q-16 28 -82 34q-14 2 -12 19q0 18 16 18h260q19 0 19 -16t-19 -19z" />
<glyph unicode="z" horiz-adv-x="940" d="M885 254l-23 -209q-4 -45 -63 -45h-711q-27 0 -27 31q0 10 7 18l550 795h-276q-113 0 -146.5 -37t-45.5 -123q-5 -22 -23 -22q-14 0 -14 22l4 174q0 45 49 45h651q31 0 31 -29q0 -10 -4 -18l-561 -795h292q152 0 193 37q47 45 80 162q6 21 20 21q19 0 17 -27z" />
<glyph unicode="{" horiz-adv-x="518" d="M645 840q-76 10 -119 -9q-60 -26 -92 -141q-50 -174 -93 -276q-18 -45 -96 -97q35 -38 35 -75q0 -17 -8 -31q-66 -123 -129.5 -247t-59.5 -161q7 -51 70 -61q14 -2 43 -4q0 -25 -53 -27q-80 -4 -107 66q-14 37 9.5 98.5t93 188t76.5 145.5q18 47 -1.5 68.5t-66.5 17.5 q-23 0 -23 24q0 23 23 23q59 0 65 2q48 14 89 84q47 80 90 281q34 168 137 165q115 -2 117 -34z" />
<glyph unicode="|" horiz-adv-x="452" d="M635 903q-4 -20 -27 -45q-28 -33 -40 -59q-263 -484 -564 -1043q-35 -71 -98 -88q43 84 164 297q207 404 444 860q54 88 80 93q17 2 30 -1.5t11 -13.5z" />
<glyph unicode="}" horiz-adv-x="581" d="M555 322q-26 -7 -51 -11q-47 -12 -92 -90q-47 -131 -145 -342q-35 -53 -111 -88q-66 -29 -121 -29q-90 2 -90 39q0 4 4 8.5t37 2.5q57 -5 65 -5q95 -2 173 89q20 26 69 167q29 87 60 173q18 47 69 88q-41 51 -35 104q4 25 99 207q86 170 75 217q-6 35 -102 20 q-20 -2 -51 -12q-19 -6 -37 -2q-6 6 -6 12q0 19 53 35q45 13 72 13q82 0 123 -37q8 -7 8 -25q0 -68 -156 -385q-20 -45 -20 -68q0 -38 41 -38q8 0 37 6q22 4 30 0q13 -6 13 -23q2 -16 -11 -26z" />
<glyph unicode="~" horiz-adv-x="1107" d="M1076 641q-41 -172 -119 -246q-69 -65 -161 -65q-88 0 -278.5 75.5t-250.5 75.5q-127 0 -192 -186q-13 -37 -33 -37t-14 37q14 100 73 190q74 113 197 113q82 0 272.5 -72.5t259.5 -72.5q74 0 125 61q39 45 70 127q16 41 37 41q16 0 16 -27q0 -6 -2 -14z" />
<glyph unicode="&#xa1;" horiz-adv-x="681" d="M453 862q0 -45 -32 -76.5t-79 -31.5t-79 31.5t-32 76.5q0 47 32 80t79 33t79 -33t32 -80zM455 -301q0 -55 -31 -98t-82 -43q-115 0 -115 151q0 23 6 68l89 811h38l89 -811q6 -45 6 -78z" />
<glyph unicode="&#xa2;" horiz-adv-x="874" d="M769 299q-80 -319 -330 -319q-67 0 -137 30l-121 -334h-61l133 365q-143 135 -143 346q0 215 133 334q104 88 233 88q19 0 53 -2l119 328h62l-123 -344q157 -72 157 -175q0 -71 -79 -71q-48 0 -74 33q-12 16 -21 59q-10 55 -16 65l-195 -538q78 -53 140 -53q110 0 174 73 q24 31 69 125zM507 739q-25 11 -51 11q-109 0 -164 -97q-45 -80 -45 -196q0 -117 67 -244z" />
<glyph unicode="&#xa3;" horiz-adv-x="874" d="M836 258q-15 -113 -72 -188q-68 -90 -174 -90q-72 0 -150 45q-30 18 -129 92q-67 -137 -159 -137q-46 0 -73.5 31.5t-27.5 78.5q0 60 40 96.5t102 36.5q28 0 71 -6q2 12 4 37v29q0 75 -18 280h-166v82h166q-12 127 -12 170q0 225 159 324q72 45 158 45q82 0 145 -45 q72 -49 72 -129q0 -27 -20.5 -49.5t-46.5 -22.5q-33 0 -54 33q-10 14 -14 69q-4 50 -28.5 73.5t-73.5 23.5q-156 0 -156 -240q0 -57 10 -160q2 -16 8 -92h221v-82h-221q2 -39 2 -57q0 -150 -53 -307q164 -54 191 -60q45 -10 88 -10q141 0 180 137zM254 147q-37 23 -72 23 q-82 0 -82 -74q0 -67 56 -67q69 0 98 118z" />
<glyph unicode="&#xa4;" d="M609 712q0 -111 -76.5 -187t-187.5 -76q-108 0 -185 77t-77 186q0 110 77 187t185 77q111 0 187.5 -77t76.5 -187zM536 712q0 82 -55.5 137t-135.5 55t-135 -55t-55 -137q0 -78 55 -134.5t135 -56.5t135.5 56.5t55.5 134.5z" />
<glyph unicode="&#xa5;" horiz-adv-x="874" d="M874 301h-364v-92q0 -76 2 -84q6 -51 37 -70.5t74 -19.5h34v-35h-440v35h27q100 0 116 71q5 15 5 103v92h-363v61h363v125l-13 31h-350v62h322l-183 424q-26 63 -49 88q-33 34 -90 34v33h377v-33q-103 -6 -103 -53q0 -12 15 -49l184 -444l182 430q17 43 17 65 q0 45 -72 49q-6 0 -22 2v33h294v-33q-51 0 -73 -18q-39 -33 -74 -113l-182 -415h329v-62h-358l-6 -14v-142h364v-61z" />
<glyph unicode="&#xa6;" horiz-adv-x="350" d="M209 582h-72v635h72v-635zM209 -379h-72v635h72v-635z" />
<glyph unicode="&#xa7;" horiz-adv-x="874" d="M741 412q0 -179 -188 -293q104 -115 104 -217q0 -103 -68.5 -173.5t-172.5 -70.5q-84 0 -149.5 55.5t-65.5 136.5q0 29 19.5 52.5t47.5 23.5q64 0 64 -76q0 -16 -7.5 -46.5t-7.5 -45.5q0 -32 37 -51q31 -16 66 -16q57 0 104 43t47 98q0 109 -176 240q-121 92 -174 153 q-88 101 -88 205q0 176 189 291q-105 117 -105 221q0 102 69.5 172t172.5 70q86 0 151.5 -53.5t65.5 -135.5q0 -77 -68 -77q-67 0 -67 67q0 12 6 40t6 42q0 80 -94 80q-62 0 -105 -43t-43 -107q0 -55 23 -90q39 -61 129 -125q125 -92 184 -157q94 -105 94 -213zM655 332 q0 119 -192 268q-74 57 -113 94q-129 -78 -129 -190q0 -80 66 -158q41 -45 133 -115q61 -47 104 -86q131 78 131 187z" />
<glyph unicode="&#xa8;" horiz-adv-x="583" d="M535 1051q0 -39 -27 -66t-66 -27q-36 0 -64 27t-28 66t26.5 65.5t65.5 26.5t66 -26.5t27 -65.5zM233 1051q0 -39 -26.5 -66t-65.5 -27q-37 0 -64.5 27t-27.5 66q0 36 26.5 64t65.5 28t65.5 -26.5t26.5 -65.5z" />
<glyph unicode="&#xa9;" horiz-adv-x="1335" d="M1274 580q0 -162 -82 -305.5t-225.5 -222.5t-298.5 -79q-162 0 -305.5 82t-222.5 224.5t-79 300.5q0 163 84 307.5t226.5 221.5t296.5 77q161 0 304.5 -81t221.5 -220q80 -146 80 -305zM1223 580q0 149 -76 280t-208 203t-271 72q-148 0 -278 -75t-202 -202 q-73 -133 -73 -278q0 -148 74.5 -279t204.5 -202.5t274 -71.5q149 0 279 74.5t203 204.5t73 274zM999 369q-118 -174 -327 -174q-166 0 -281 107.5t-115 272.5q0 175 127 287q121 109 299 109q60 0 158 -33q21 -6 31 -6q27 0 43 37h35l16 -238h-33q-61 201 -260 201 q-139 0 -215 -107q-59 -84 -59 -225q0 -354 282 -354q168 0 269 139z" />
<glyph unicode="&#xaa;" horiz-adv-x="565" d="M561 856q-100 -74 -147 -74q-58 0 -74 97q-127 -93 -215 -93q-51 0 -91 37t-40 88q0 93 129 170q49 31 217 99q0 86 -14 118q-23 58 -93 58q-94 0 -94 -87t-57 -87q-55 0 -55 59q0 76 84 115q63 28 149 28q166 0 205 -96q12 -31 12 -108v-217q0 -54 2 -62q6 -27 25 -27 q14 0 57 31v-49zM340 915v228q-207 -70 -207 -185q0 -36 26.5 -61t61.5 -25q45 0 119 43z" />
<glyph unicode="&#xab;" horiz-adv-x="1024" d="M961 -8h-60l-393 473l393 469h60l-244 -469zM508 -8h-57l-388 473l388 469h57l-244 -469z" />
<glyph unicode="&#xac;" horiz-adv-x="1155" d="M1115 471h-80v326h-999v82h1079v-408z" />
<glyph unicode="&#xae;" horiz-adv-x="1331" d="M1272 580q0 -252 -177 -429.5t-429 -177.5t-429.5 177.5t-177.5 429.5q0 251 177.5 428.5t429.5 177.5t429 -176t177 -430zM1219 580q0 231 -162 393t-391 162q-232 0 -392.5 -163t-160.5 -392q0 -230 161.5 -391.5t391.5 -161.5q229 0 391 160.5t162 392.5zM1006 213 h-156l-252 346h-66v-264q0 -53 101 -53v-29h-314v29q60 0 76 26q15 19 15 82v475q0 58 -11 74q-16 23 -69 23v30h329q103 0 172 -43q82 -51 82 -147q0 -141 -188 -191l178 -256q49 -69 103 -73v-29zM776 752q0 71 -49 117t-123 46q-33 0 -72 -14v-305q244 0 244 156z" />
<glyph unicode="&#xaf;" horiz-adv-x="1024" d="M1042 1462h-1058v84h1058v-84z" />
<glyph unicode="&#xb0;" d="M609 922q0 -111 -76.5 -187t-187.5 -76q-108 0 -185 77t-77 186q0 110 77 187t185 77q111 0 187.5 -77t76.5 -187zM536 922q0 82 -55.5 137t-135.5 55t-135 -55t-55 -137q0 -78 55 -134.5t135 -56.5t135.5 56.5t55.5 134.5z" />
<glyph unicode="&#xb1;" horiz-adv-x="1124" d="M1087 141h-1079v80h498v420h-498v82h498v496h80v-496h499v-82h-499v-420h501v-80z" />
<glyph unicode="&#xb2;" horiz-adv-x="524" d="M492 698l-52 -131h-424v25q324 252 324 391q0 53 -35 88t-90 35q-102 0 -141 -100h-37q24 178 207 178q75 0 135 -41q67 -47 67 -121q0 -135 -292 -373h159q60 0 78 4q41 11 62 45h39z" />
<glyph unicode="&#xb3;" horiz-adv-x="524" d="M445 770q0 -108 -92 -166q-78 -49 -190 -49q-127 0 -127 53q0 39 51 39q23 0 71 -20.5t77 -20.5q47 0 81.5 33t34.5 80q0 92 -82 123q-51 18 -92 18h-24v25q59 0 107 36.5t48 96.5q0 94 -104 94q-72 0 -125 -76l-33 15q64 133 197 133q63 0 112 -31q58 -37 58 -96 q0 -58 -90 -131q122 -45 122 -156z" />
<glyph unicode="&#xb4;" horiz-adv-x="583" d="M499 1204q0 -43 -64 -78l-315 -180h-82l301 275q49 43 90 43q70 0 70 -60zM294 856z" />
<glyph unicode="&#xb5;" horiz-adv-x="1179" d="M1094 205q-17 -234 -197 -234q-141 0 -160 191q-162 -191 -313 -191q-92 0 -156 86v-47q0 -78 33 -237q14 -62 14 -105t-25.5 -76.5t-68.5 -33.5q-88 0 -88 108q0 47 31 166q18 78 20 105q13 108 13 178q0 -4 0 21.5v53.5v725h163v-532q0 -107 5 -141q14 -88 61 -121 q35 -27 76 -27q119 0 235 135v686h166v-653q0 -143 33 -168q16 -14 35 -14q61 0 82 125h41z" />
<glyph unicode="&#xb6;" horiz-adv-x="792" d="M797 1112h-115v-1491h-61v1491h-160v-1491h-62v893q-135 6 -209 31q-108 35 -159 125q-43 75 -43 170q0 190 170 278q82 41 215 41h424v-47z" />
<glyph unicode="&#xb7;" horiz-adv-x="512" d="M367 678q0 -47 -32 -79t-79 -32q-45 0 -78 33t-33 78q0 47 32 78.5t79 31.5t79 -31.5t32 -78.5z" />
<glyph unicode="&#xb8;" horiz-adv-x="681" d="M496 -209q0 -82 -65.5 -131t-149.5 -49q-37 0 -95 6v43q29 -4 50 -4q47 0 83.5 31.5t36.5 79.5q0 30 -23.5 51.5t-56.5 21.5q-10 0 -26 -2l110 178h62l-51 -79q125 -31 125 -146z" />
<glyph unicode="&#xb9;" horiz-adv-x="524" d="M407 567h-279v29q76 0 84 18q4 11 4 64v319q0 88 -12 101q-6 4 -19 4q-16 0 -57 -17l-12 23l174 76h31v-506q0 -51 4 -64q12 -18 82 -18v-29z" />
<glyph unicode="&#xba;" horiz-adv-x="634" d="M609 1092q0 -125 -88 -215.5t-211 -90.5q-121 0 -201.5 83t-80.5 206q0 135 80.5 222t214.5 87q125 0 205.5 -83.5t80.5 -208.5zM472 1024q0 156 -72 256q-43 61 -104 61q-127 0 -127 -188q0 -158 70 -258q39 -57 102 -57q131 0 131 186z" />
<glyph unicode="&#xbb;" horiz-adv-x="1024" d="M961 463l-388 -471h-57l244 471l-244 471h57zM516 463l-393 -471h-60l244 471l-244 471h60z" />
<glyph unicode="&#xbc;" horiz-adv-x="1312" d="M1283 123h-92v-158h-100v158h-293v61l319 398h74v-389h92v-70zM1103 1184l-799 -1231h-76l799 1231h76zM405 567h-277v29q74 0 82 18q4 11 4 64v319q0 88 -12 101q-6 4 -17 4q-18 0 -57 -17l-14 23l176 76h28v-506q0 -51 7 -64q10 -18 80 -18v-29zM1091 193v268 l-224 -268h224z" />
<glyph unicode="&#xbd;" horiz-adv-x="1312" d="M1277 96l-53 -131h-422v27q323 250 323 389q0 55 -35.5 89t-89.5 34q-104 0 -141 -101h-39q27 179 207 179q78 0 137 -41q68 -45 68 -119q0 -135 -293 -373h160q110 0 139 47h39zM1082 1184l-798 -1231h-76l799 1231h75zM405 567h-277v29q74 0 82 18q4 11 4 64v319 q0 88 -12 101q-6 4 -17 4q-18 0 -57 -17l-14 23l176 76h28v-506q0 -51 7 -64q10 -18 80 -18v-29z" />
<glyph unicode="&#xbe;" horiz-adv-x="1312" d="M1283 123h-92v-158h-100v158h-293v61l319 398h74v-389h92v-70zM1091 1184l-797 -1231h-76l799 1231h74zM445 770q0 -108 -92 -166q-80 -49 -192 -49q-125 0 -125 53q0 39 49 39q23 0 71 -20.5t76 -20.5q48 0 82.5 33t34.5 80q0 145 -198 141v25q59 0 107 36.5t48 96.5 q0 94 -104 94q-72 0 -125 -76l-33 15q66 133 197 133q63 0 112 -31q58 -37 58 -96q0 -58 -90 -131q124 -45 124 -156zM1091 193v268l-222 -268h222z" />
<glyph unicode="&#xbf;" horiz-adv-x="909" d="M563 864q0 -47 -32.5 -78.5t-77.5 -31.5t-78 32.5t-33 77.5t32 78t79 33t78.5 -32t31.5 -79zM823 -152q0 -114 -97 -202t-265 -88q-152 0 -256 82q-117 90 -117 235q0 168 180 375q97 110 127 170q39 80 45 207h39q-4 -135 -35 -230q-18 -63 -90 -215q-84 -174 -84 -288 q0 -119 58 -193q63 -84 180 -84q67 0 121 33q65 37 65 98q0 31 -30.5 86t-30.5 84q0 35 22.5 58.5t57.5 23.5q53 0 81.5 -48t28.5 -104z" />
<glyph unicode="&#xc0;" horiz-adv-x="1478" d="M852 1286h-84l-315 180q-62 35 -62 78q0 60 70 60q41 0 90 -43zM1229 0h-436q-13 0 -15 14q0 17 15 19q43 4 100 14q20 10 20 49q0 37 -32 115l-72 168h-461q-94 -238 -94 -270q0 -46 37 -62q6 -4 84 -14q12 -2 12 -19q2 -14 -12 -14h-344q-11 0 -11 14q-2 17 11 19 q82 12 137 112l76 174l354 834q12 23 31 23q16 0 26 -23l426 -967q43 -98 70 -121.5t78 -31.5q12 -2 12 -19q0 -14 -12 -14zM784 451l-190 452q-4 12 -14 10q-9 0 -13 -10l-186 -452h403zM690 1196z" />
<glyph unicode="&#xc1;" horiz-adv-x="1267" d="M754 1624q0 -43 -62 -78l-315 -180h-82l301 274q49 43 90 43q68 0 68 -59zM1229 0h-436q-13 0 -15 14q0 17 15 19q43 4 100 14q20 10 20 49q0 37 -32 115l-72 168h-461q-94 -238 -94 -270q0 -46 37 -62q6 -4 84 -14q12 -2 12 -19q2 -14 -12 -14h-344q-11 0 -11 14 q-2 17 11 19q82 12 137 112l76 174l354 834q12 23 31 23q16 0 26 -23l426 -967q43 -98 70 -121.5t78 -31.5q12 -2 12 -19q0 -14 -12 -14zM784 451l-190 452q-4 12 -14 10q-9 0 -13 -10l-186 -452h403zM551 1276z" />
<glyph unicode="&#xc2;" horiz-adv-x="1271" d="M891 1278h-31l-274 213l-228 -213h-30l188 332h184zM1229 0h-436q-13 0 -15 14q0 17 15 19q43 4 100 14q20 10 20 49q0 37 -32 115l-72 168h-461q-94 -238 -94 -270q0 -46 37 -62q6 -4 84 -14q12 -2 12 -19q2 -14 -12 -14h-344q-11 0 -11 14q-2 17 11 19q82 12 137 112 l76 174l354 834q12 23 31 23q16 0 26 -23l426 -967q43 -98 70 -121.5t78 -31.5q12 -2 12 -19q0 -14 -12 -14zM784 451l-190 452q-4 12 -14 10q-9 0 -13 -10l-186 -452h403z" />
<glyph unicode="&#xc3;" horiz-adv-x="1478" d="M918 1599q2 -167 -97 -231q-47 -33 -94 -33q-78 0 -195 80q-90 62 -129 62q-41 0 -65 -35q-10 -17 -27 -103h-32q8 260 188 260q76 0 203 -83q84 -56 123 -56q71 0 94 139h31zM1229 0h-436q-13 0 -15 14q0 17 15 19q43 4 100 14q20 10 20 49q0 37 -32 115l-72 168h-461 q-94 -238 -94 -270q0 -46 37 -62q6 -4 84 -14q12 -2 12 -19q2 -14 -12 -14h-344q-11 0 -11 14q-2 17 11 19q82 12 137 112l76 174l354 834q12 23 31 23q16 0 26 -23l426 -967q43 -98 70 -121.5t78 -31.5q12 -2 12 -19q0 -14 -12 -14zM784 451l-190 452q-4 12 -14 10 q-9 0 -13 -10l-186 -452h403z" />
<glyph unicode="&#xc4;" horiz-adv-x="1259" d="M850 1516q0 -39 -26.5 -66t-65.5 -27t-66.5 28t-27.5 65q0 38 27.5 66t66.5 28t65.5 -28t26.5 -66zM549 1516q0 -37 -27.5 -65t-64.5 -28q-39 0 -67 28t-28 65q0 38 28 66t65 28q41 0 67.5 -27t26.5 -67zM1229 0h-436q-13 0 -15 14q0 17 15 19q43 4 100 14q20 10 20 49 q0 37 -32 115l-72 168h-461q-94 -238 -94 -270q0 -46 37 -62q6 -4 84 -14q12 -2 12 -19q2 -14 -12 -14h-344q-11 0 -11 14q-2 17 11 19q82 12 137 112l76 174l354 834q12 23 31 23q16 0 26 -23l426 -967q43 -98 70 -121.5t78 -31.5q12 -2 12 -19q0 -14 -12 -14zM784 451 l-190 452q-4 12 -14 10q-9 0 -13 -10l-186 -452h403z" />
<glyph unicode="&#xc5;" horiz-adv-x="1265" d="M795 1450q0 -80 -55.5 -136.5t-137.5 -56.5q-80 0 -135 56.5t-55 136.5t56 135t134 55q80 0 136.5 -55t56.5 -135zM1229 0h-436q-13 0 -15 14q0 17 15 19q43 4 100 14q20 10 20 49q0 37 -32 115l-72 168h-461q-94 -238 -94 -270q0 -46 37 -62q6 -4 84 -14q12 -2 12 -19 q2 -14 -12 -14h-344q-11 0 -11 14q-2 17 11 19q82 12 137 112l76 174l354 834q12 23 31 23q16 0 26 -23l426 -967q43 -98 70 -121.5t78 -31.5q12 -2 12 -19q0 -14 -12 -14zM725 1450q0 53 -35 88t-88 35q-51 0 -86 -36t-35 -87t36 -87t85 -36q51 0 87 36t36 87zM784 451 l-190 452q-4 12 -14 10q-9 0 -13 -10l-186 -452h403z" />
<glyph unicode="&#xc6;" horiz-adv-x="1556" d="M1503 276l-51 -204q-18 -72 -104 -72h-770q-27 0 -27 18q0 17 27 23q75 12 105 36.5t30 123.5v250h-332q-10 -19 -154 -281q-12 -25 -12 -61q0 -46 35 -62q8 -4 84 -14q14 -2 14 -19q2 -14 -14 -14h-342q-10 0 -12 14q0 17 12 19q63 10 96 51q43 55 125 209l342 637 q47 88 47 123q0 20 -10 34q-17 21 -55 29l-62 8q-22 4 -22 23q0 12 22 12h791q63 0 92 4q49 11 51 -37l8 -219q0 -24 -18 -24q-19 0 -27 24q-16 47 -33 94q-14 41 -34 58q-43 33 -199 33h-168q-35 0 -46 -11.5t-11 -48.5v-391h200q113 0 144 35q22 24 49 115q8 26 22 26 q19 0 19 -26v-359q0 -24 -17 -24q-18 0 -24 18q-25 88 -49 115q-31 32 -144 32h-200v-434q0 -51 34.5 -61t186.5 -10q119 0 203 38q71 33 153 191q8 14 23 14q30 0 22 -35zM713 520v533q0 12 -8 12q-9 -2 -15 -10l-278 -535h301zM809 1352z" />
<glyph unicode="&#xc7;" horiz-adv-x="1173" d="M1110 195q-49 -70 -143 -129q-148 -95 -322 -95q-268 0 -435 165t-167 431q0 256 164 430q170 183 481 183q209 0 309 -60q74 -43 80 -151l13 -183q0 -24 -27 -24q-25 0 -35 24q-33 82 -43 105q-22 53 -47 84q-109 135 -272 135q-209 0 -322 -176q-96 -148 -96 -371 q0 -213 108 -356q119 -158 326 -158q137 0 252 66q90 51 145 112q11 13 23 13q18 0 18 -23q0 -10 -10 -22zM793 -209q0 -82 -65.5 -131t-149.5 -49q-37 0 -93 6v43q27 -4 47 -4q48 0 84.5 31.5t36.5 79.5q0 30 -23.5 51.5t-56.5 21.5q-10 0 -26 -2l112 178h60l-51 -79 q125 -31 125 -146z" />
<glyph unicode="&#xc8;" horiz-adv-x="1081" d="M744 1294h-83l-316 179q-61 34 -61 79q0 58 69 58q41 0 90 -43zM1043 276l-51 -204q-18 -72 -104 -72h-830q-26 0 -26 18q0 21 26 25q56 10 85.5 34.5t29.5 123.5v755q0 95 -29 123q-20 21 -86 35q-22 4 -22 29q0 16 22 16h748q65 0 92 4q51 11 51 -37l8 -219 q3 -24 -16 -24q-20 0 -29 24q-16 47 -30 94q-17 41 -35 58q-45 33 -201 33h-237q-35 0 -46.5 -11.5t-11.5 -48.5v-391h271q112 0 143 35q25 24 49 115q8 26 25 26q16 0 16 -26v-359q0 -24 -16 -24q-19 0 -25 18q-24 88 -49 115q-31 32 -143 32h-271v-434q0 -63 92 -73 q-24 2 140 2q178 0 264 38q70 33 151 191q9 14 23 14q31 0 22 -35zM581 1204zM538 1159z" />
<glyph unicode="&#xc9;" horiz-adv-x="1087" d="M740 1624q0 -43 -63 -78l-313 -180h-84l301 274q49 43 90 43q69 0 69 -59zM1043 276l-51 -204q-18 -72 -104 -72h-830q-26 0 -26 18q0 21 26 25q56 10 85.5 34.5t29.5 123.5v755q0 95 -29 123q-20 21 -86 35q-22 4 -22 29q0 16 22 16h748q65 0 92 4q51 11 51 -37l8 -219 q3 -24 -16 -24q-20 0 -29 24q-16 47 -30 94q-17 41 -35 58q-45 33 -201 33h-237q-35 0 -46.5 -11.5t-11.5 -48.5v-391h271q112 0 143 35q25 24 49 115q8 26 25 26q16 0 16 -26v-359q0 -24 -16 -24q-19 0 -25 18q-24 88 -49 115q-31 32 -143 32h-271v-434q0 -63 92 -73 q-24 2 140 2q178 0 264 38q70 33 151 191q9 14 23 14q31 0 22 -35zM536 1276zM538 1159z" />
<glyph unicode="&#xca;" horiz-adv-x="1073" d="M818 1284h-31l-274 213l-227 -213h-31l188 332h185zM1043 276l-51 -204q-18 -72 -104 -72h-830q-26 0 -26 18q0 21 26 25q56 10 85.5 34.5t29.5 123.5v755q0 95 -29 123q-20 21 -86 35q-22 4 -22 29q0 16 22 16h748q65 0 92 4q51 11 51 -37l8 -219q3 -24 -16 -24 q-20 0 -29 24q-16 47 -30 94q-17 41 -35 58q-45 33 -201 33h-237q-35 0 -46.5 -11.5t-11.5 -48.5v-391h271q112 0 143 35q25 24 49 115q8 26 25 26q16 0 16 -26v-359q0 -24 -16 -24q-19 0 -25 18q-24 88 -49 115q-31 32 -143 32h-271v-434q0 -63 92 -73q-24 2 140 2 q178 0 264 38q70 33 151 191q9 14 23 14q31 0 22 -35zM538 1159z" />
<glyph unicode="&#xcb;" horiz-adv-x="1073" d="M742 1507q0 -39 -26.5 -66.5t-65.5 -27.5t-66.5 27.5t-27.5 66.5q0 37 27.5 64.5t66.5 27.5t65.5 -26.5t26.5 -65.5zM441 1507q0 -39 -27.5 -66.5t-64.5 -27.5q-39 0 -66.5 27.5t-27.5 66.5q0 37 27.5 64.5t64.5 27.5q41 0 67.5 -26.5t26.5 -65.5zM1043 276l-51 -204 q-18 -72 -104 -72h-830q-26 0 -26 18q0 21 26 25q56 10 85.5 34.5t29.5 123.5v755q0 95 -29 123q-20 21 -86 35q-22 4 -22 29q0 16 22 16h748q65 0 92 4q51 11 51 -37l8 -219q3 -24 -16 -24q-20 0 -29 24q-16 47 -30 94q-17 41 -35 58q-45 33 -201 33h-237 q-35 0 -46.5 -11.5t-11.5 -48.5v-391h271q112 0 143 35q25 24 49 115q8 26 25 26q16 0 16 -26v-359q0 -24 -16 -24q-19 0 -25 18q-24 88 -49 115q-31 32 -143 32h-271v-434q0 -63 92 -73q-24 2 140 2q178 0 264 38q70 33 151 191q9 14 23 14q31 0 22 -35zM538 1159z" />
<glyph unicode="&#xcc;" horiz-adv-x="581" d="M523 1292h-84l-315 178q-62 35 -62 80q0 60 70 60q41 0 90 -45zM517 0h-463q-26 0 -26 16q0 19 26 23q95 16 115 35q29 22 29 104v803q0 82 -29 104q-20 19 -115 35q-26 6 -26 23q0 16 26 16h463q29 0 29 -16q0 -17 -29 -23q-86 -14 -108 -35q-31 -26 -31 -104v-803 q0 -78 31 -104q22 -21 108 -35q29 -4 29 -23q0 -16 -29 -16zM359 1202z" />
<glyph unicode="&#xcd;" horiz-adv-x="581" d="M479 1624q0 -43 -61 -78l-316 -180h-84l301 274q50 43 91 43q69 0 69 -59zM518 0h-463q-26 0 -26 16q0 19 26 23q95 16 115 35q29 22 29 104v803q0 82 -29 104q-20 19 -115 35q-26 6 -26 23q0 16 26 16h463q29 0 29 -16q0 -17 -29 -23q-86 -14 -108 -35q-31 -26 -31 -104 v-803q0 -78 31 -104q22 -21 108 -35q29 -4 29 -23q0 -16 -29 -16zM274 1276z" />
<glyph unicode="&#xce;" horiz-adv-x="587" d="M567 1284h-30l-275 213l-229 -213h-29l189 332h184zM518 0h-463q-26 0 -26 16q0 19 26 23q95 16 115 35q29 22 29 104v803q0 82 -29 104q-20 19 -115 35q-26 6 -26 23q0 16 26 16h463q29 0 29 -16q0 -17 -29 -23q-86 -14 -108 -35q-31 -26 -31 -104v-803q0 -78 31 -104 q22 -21 108 -35q29 -4 29 -23q0 -16 -29 -16z" />
<glyph unicode="&#xcf;" horiz-adv-x="581" d="M527 1432q0 -39 -27.5 -66t-64.5 -27q-39 0 -66.5 27t-27.5 66q0 38 27.5 65t66.5 27t65.5 -27t26.5 -65zM226 1432q0 -39 -27.5 -66t-64.5 -27q-39 0 -66.5 27t-27.5 66q0 36 26.5 64t65.5 28q41 0 67.5 -27t26.5 -65zM517 0h-463q-26 0 -26 16q0 19 26 23q95 16 115 35 q29 22 29 104v803q0 82 -29 104q-20 19 -115 35q-26 6 -26 23q0 16 26 16h463q29 0 29 -16q0 -17 -29 -23q-86 -14 -108 -35q-31 -26 -31 -104v-803q0 -78 31 -104q22 -21 108 -35q29 -4 29 -23q0 -16 -29 -16z" />
<glyph unicode="&#xd1;" horiz-adv-x="1271" d="M899 1606q2 -168 -96 -232q-47 -33 -94 -33q-78 0 -197 82q-88 60 -127 60q-41 0 -66 -35q-10 -16 -26 -102h-33q8 260 189 260q75 0 202 -84q84 -56 121 -56q74 0 96 140h31zM1229 1120q-94 -16 -117 -35q-39 -32 -39 -147v-915q0 -29 -24 -29q-17 0 -27 14l-735 907 q-21 25 -21 -4v-669q0 -129 45 -168q25 -21 111 -35q27 -4 27 -23q0 -16 -27 -16h-387q-27 0 -27 16q0 19 27 23q94 16 117 35q38 32 38 168v778q0 12 -24 39q-16 16 -55 45q-27 10 -68 14q-18 2 -18 21q0 20 18 20h240q39 0 77 -49l619 -770q18 -23 18 2v596q0 111 -45 147 q-20 19 -108 35q-27 4 -27 23q0 16 27 16h385q26 0 26 -16q0 -19 -26 -23z" />
<glyph unicode="&#xd2;" horiz-adv-x="1261" d="M850 1294h-84l-315 179q-62 36 -62 79q0 60 70 60q41 0 90 -45zM1202 580q0 -261 -155 -430q-162 -175 -418 -175q-258 0 -418 172t-160 433q0 260 159 432t419 172q258 0 415.5 -172t157.5 -432zM1004 580q0 219 -78 360q-97 180 -297 180q-201 0 -299 -180 q-78 -143 -78 -360q0 -218 78 -361q98 -180 299 -180q200 0 297 180q78 141 78 361zM688 1204zM629 1184z" />
<glyph unicode="&#xd3;" horiz-adv-x="1241" d="M838 1624q0 -43 -62 -78l-315 -180h-82l301 274q47 43 90 43q68 0 68 -59zM1202 580q0 -261 -155 -430q-162 -175 -418 -175q-258 0 -418 172t-160 433q0 260 159 432t419 172q258 0 415.5 -172t157.5 -432zM1004 580q0 219 -78 360q-97 180 -297 180q-201 0 -299 -180 q-78 -143 -78 -360q0 -218 78 -361q98 -180 299 -180q200 0 297 180q78 141 78 361zM635 1276zM629 1184z" />
<glyph unicode="&#xd4;" horiz-adv-x="1253" d="M909 1272h-30l-273 213l-229 -213h-31l191 330h182zM1202 580q0 -261 -155 -430q-162 -175 -418 -175q-258 0 -418 172t-160 433q0 260 159 432t419 172q258 0 415.5 -172t157.5 -432zM1004 580q0 219 -78 360q-97 180 -297 180q-201 0 -299 -180q-78 -143 -78 -360 q0 -218 78 -361q98 -180 299 -180q200 0 297 180q78 141 78 361zM629 1184z" />
<glyph unicode="&#xd5;" horiz-adv-x="1478" d="M967 1606q2 -168 -95 -232q-49 -31 -94 -31q-80 0 -196 80q-90 60 -129 60q-41 0 -64 -35q-12 -16 -29 -100h-32q8 258 188 258q76 0 203 -84q84 -56 123 -56q71 0 94 140h31zM1202 580q0 -261 -155 -430q-162 -175 -418 -175q-258 0 -418 172t-160 433q0 260 159 432 t419 172q258 0 415.5 -172t157.5 -432zM1004 580q0 219 -78 360q-97 180 -297 180q-201 0 -299 -180q-78 -143 -78 -360q0 -218 78 -361q98 -180 299 -180q200 0 297 180q78 141 78 361zM629 1184z" />
<glyph unicode="&#xd6;" horiz-adv-x="1251" d="M866 1505q0 -37 -26.5 -64.5t-65.5 -27.5q-37 0 -64.5 27.5t-27.5 64.5q0 39 26.5 66.5t65.5 27.5t65.5 -26.5t26.5 -67.5zM565 1505q0 -37 -26.5 -64.5t-65.5 -27.5q-37 0 -64.5 27.5t-27.5 64.5q0 39 26.5 66.5t65.5 27.5t65.5 -26.5t26.5 -67.5zM1202 580 q0 -261 -155 -430q-162 -175 -418 -175q-258 0 -418 172t-160 433q0 260 159 432t419 172q258 0 415.5 -172t157.5 -432zM1004 580q0 219 -78 360q-97 180 -297 180q-201 0 -299 -180q-78 -143 -78 -360q0 -218 78 -361q98 -180 299 -180q200 0 297 180q78 141 78 361z M629 1184z" />
<glyph unicode="&#xd7;" horiz-adv-x="987" d="M844 281l-49 -50l-303 304l-302 -304l-49 50l301 301l-301 301l52 49l299 -299l301 299l49 -47l-301 -301z" />
<glyph unicode="&#xd8;" horiz-adv-x="1286" d="M1218 584q0 -295 -211 -480q-164 -141 -359 -141q-205 0 -358 125l-111 -139l-51 41l115 143q-174 178 -174 457q0 248 164.5 424t412.5 176q197 0 352 -129l113 141l49 -39l-114 -143q172 -186 172 -436zM925 973q-101 155 -283 155q-151 0 -244 -102 q-131 -147 -131 -432q0 -201 62 -354zM1017 557q0 188 -60 352l-591 -731q100 -151 270 -151q160 0 258 110q123 139 123 420z" />
<glyph unicode="&#xd9;" horiz-adv-x="1267" d="M880 1294h-84l-316 179q-61 36 -61 79q0 60 69 60q41 0 91 -45zM1213 1120q-77 -12 -104 -35q-37 -30 -37 -219v-422q0 -180 -55 -282q-105 -187 -391 -187q-445 0 -445 447v559q0 82 -26.5 104.5t-102.5 34.5q-26 6 -26 23q0 16 26 16h441q26 0 26 -16q0 -17 -26 -23 q-76 -12 -105 -36.5t-29 -102.5v-571q0 -357 306 -357q215 0 288 146q41 80 41 245v422q0 189 -37 219q-24 23 -102 35q-27 6 -27 23q0 16 27 16h358q27 0 27 -16q0 -17 -27 -23zM716 1204z" />
<glyph unicode="&#xda;" horiz-adv-x="1273" d="M833 1622q0 -45 -62 -80l-315 -178h-82l301 272q47 45 90 45q68 0 68 -59zM1213 1120q-77 -12 -104 -35q-37 -30 -37 -219v-422q0 -180 -55 -282q-105 -187 -391 -187q-445 0 -445 447v559q0 82 -26.5 104.5t-102.5 34.5q-26 6 -26 23q0 16 26 16h441q26 0 26 -16 q0 -17 -26 -23q-76 -12 -105 -36.5t-29 -102.5v-571q0 -357 306 -357q215 0 288 146q41 80 41 245v422q0 189 -37 219q-24 23 -102 35q-27 6 -27 23q0 16 27 16h358q27 0 27 -16q0 -17 -27 -23zM630 1274z" />
<glyph unicode="&#xdb;" horiz-adv-x="1273" d="M923 1282h-31l-272 213l-230 -213h-31l191 330h184zM1213 1120q-77 -12 -104 -35q-37 -30 -37 -219v-422q0 -180 -55 -282q-105 -187 -391 -187q-445 0 -445 447v559q0 82 -26.5 104.5t-102.5 34.5q-26 6 -26 23q0 16 26 16h441q26 0 26 -16q0 -17 -26 -23 q-76 -12 -105 -36.5t-29 -102.5v-571q0 -357 306 -357q215 0 288 146q41 80 41 245v422q0 189 -37 219q-24 23 -102 35q-27 6 -27 23q0 16 27 16h358q27 0 27 -16q0 -17 -27 -23z" />
<glyph unicode="&#xdc;" horiz-adv-x="1265" d="M888 1520q0 -39 -26.5 -66t-65.5 -27t-67 27t-28 66t28 65.5t67 26.5t65.5 -26.5t26.5 -65.5zM587 1520q0 -39 -28 -66t-64 -27q-39 0 -67 27t-28 66t28 65.5t65 26.5q41 0 67.5 -26.5t26.5 -65.5zM1213 1120q-77 -12 -104 -35q-37 -30 -37 -219v-422q0 -180 -55 -282 q-105 -187 -391 -187q-445 0 -445 447v559q0 82 -26.5 104.5t-102.5 34.5q-26 6 -26 23q0 16 26 16h441q26 0 26 -16q0 -17 -26 -23q-76 -12 -105 -36.5t-29 -102.5v-571q0 -357 306 -357q215 0 288 146q41 80 41 245v422q0 189 -37 219q-24 23 -102 35q-27 6 -27 23 q0 16 27 16h358q27 0 27 -16q0 -17 -27 -23z" />
<glyph unicode="&#xdf;" horiz-adv-x="874" d="M818 360q0 -143 -69 -249q-82 -121 -218 -121q-65 0 -114 36.5t-49 100.5q0 76 67 76q70 0 70 -68q0 -12 -4 -30.5t-4 -28.5q0 -39 47 -39q129 0 129 229q0 379 -252 396v49q184 0 184 231q0 217 -166 217q-155 0 -155 -272v-887h-254v31q86 8 104 57q8 23 8 105v632 q0 392 306 392q131 0 216 -75t85 -204q0 -166 -164 -236q233 -69 233 -342z" />
<glyph unicode="&#xe0;" horiz-adv-x="968" d="M704 1077h-84l-316 178q-61 37 -61 80q0 60 69 60q41 0 90 -45zM947 76q-22 -27 -57 -49q-60 -39 -121 -39q-133 0 -141 151q-187 -153 -324 -153q-94 0 -159.5 61.5t-65.5 155.5q0 147 156 243q94 60 391 166v86q0 103 -23 144q-35 67 -149 67q-56 0 -99 -22 q-55 -29 -55 -78q0 -14 5 -40t5 -40q0 -90 -92 -90q-41 0 -69.5 26.5t-28.5 67.5q0 111 133 174q108 54 229 54q207 0 281 -130q39 -69 39 -202v-406q0 -59 8 -82q14 -39 57 -39q35 0 56 13q12 8 22 8q17 0 17 -17q0 -14 -15 -30zM626 240v321q-357 -112 -357 -291 q0 -69 43 -116.5t113 -47.5q66 0 127 33q74 41 74 101zM542 987zM484 961z" />
<glyph unicode="&#xe1;" horiz-adv-x="968" d="M643 1346q0 -43 -63 -78l-316 -181h-82l301 275q49 43 90 43q70 0 70 -59zM485 961zM438 997zM948 76q-22 -27 -57 -49q-60 -39 -121 -39q-133 0 -141 151q-187 -153 -324 -153q-94 0 -159.5 61.5t-65.5 155.5q0 147 156 243q94 60 391 166v86q0 103 -23 144 q-35 67 -149 67q-56 0 -99 -22q-55 -29 -55 -78q0 -14 5 -40t5 -40q0 -90 -92 -90q-41 0 -69.5 26.5t-28.5 67.5q0 111 133 174q108 54 229 54q207 0 281 -130q39 -69 39 -202v-406q0 -59 8 -82q14 -39 57 -39q35 0 56 13q12 8 22 8q17 0 17 -17q0 -14 -15 -30zM627 240v321 q-357 -112 -357 -291q0 -69 43 -116.5t113 -47.5q66 0 127 33q74 41 74 101zM543 987zM485 961z" />
<glyph unicode="&#xe2;" horiz-adv-x="968" d="M738 1055h-30l-273 213l-229 -213h-31l191 329h184zM947 76q-22 -27 -57 -49q-60 -39 -121 -39q-133 0 -141 151q-187 -153 -324 -153q-94 0 -159.5 61.5t-65.5 155.5q0 147 156 243q94 60 391 166v86q0 103 -23 144q-35 67 -149 67q-56 0 -99 -22q-55 -29 -55 -78 q0 -14 5 -40t5 -40q0 -90 -92 -90q-41 0 -69.5 26.5t-28.5 67.5q0 111 133 174q108 54 229 54q207 0 281 -130q39 -69 39 -202v-406q0 -59 8 -82q14 -39 57 -39q35 0 56 13q12 8 22 8q17 0 17 -17q0 -14 -15 -30zM626 240v321q-357 -112 -357 -291q0 -69 43 -116.5 t113 -47.5q66 0 127 33q74 41 74 101zM484 961z" />
<glyph unicode="&#xe3;" horiz-adv-x="968" d="M777 1356q2 -168 -96 -232q-47 -30 -94 -30q-78 0 -197 80q-88 61 -127 61q-41 0 -65 -37q-11 -16 -29 -100h-31q8 258 189 258q75 0 202 -84q82 -55 121 -55q74 0 97 139h30zM947 76q-22 -27 -57 -49q-60 -39 -121 -39q-133 0 -141 151q-187 -153 -324 -153 q-94 0 -159.5 61.5t-65.5 155.5q0 147 156 243q94 60 391 166v86q0 103 -23 144q-35 67 -149 67q-56 0 -99 -22q-55 -29 -55 -78q0 -14 5 -40t5 -40q0 -90 -92 -90q-41 0 -69.5 26.5t-28.5 67.5q0 111 133 174q108 54 229 54q207 0 281 -130q39 -69 39 -202v-406 q0 -59 8 -82q14 -39 57 -39q35 0 56 13q12 8 22 8q17 0 17 -17q0 -14 -15 -30zM626 240v321q-357 -112 -357 -291q0 -69 43 -116.5t113 -47.5q66 0 127 33q74 41 74 101zM484 961z" />
<glyph unicode="&#xe4;" horiz-adv-x="968" d="M704 1192q0 -39 -28 -65.5t-65 -26.5q-39 0 -66.5 26.5t-27.5 65.5t27.5 65.5t66.5 26.5t66 -26.5t27 -65.5zM402 1192q0 -39 -27.5 -65.5t-64.5 -26.5q-39 0 -66.5 26.5t-27.5 65.5q0 37 27.5 64.5t64.5 27.5q41 0 67.5 -26.5t26.5 -65.5zM947 76q-22 -27 -57 -49 q-60 -39 -121 -39q-133 0 -141 151q-187 -153 -324 -153q-94 0 -159.5 61.5t-65.5 155.5q0 147 156 243q94 60 391 166v86q0 103 -23 144q-35 67 -149 67q-56 0 -99 -22q-55 -29 -55 -78q0 -14 5 -40t5 -40q0 -90 -92 -90q-41 0 -69.5 26.5t-28.5 67.5q0 111 133 174 q108 54 229 54q207 0 281 -130q39 -69 39 -202v-406q0 -59 8 -82q14 -39 57 -39q35 0 56 13q12 8 22 8q17 0 17 -17q0 -14 -15 -30zM626 240v321q-357 -112 -357 -291q0 -69 43 -116.5t113 -47.5q66 0 127 33q74 41 74 101zM484 961z" />
<glyph unicode="&#xe5;" horiz-adv-x="968" d="M663 1274q0 -80 -56.5 -135.5t-136.5 -55.5t-135 55.5t-55 135.5t55 136t135 56t136.5 -56t56.5 -136zM947 76q-22 -27 -57 -49q-60 -39 -121 -39q-133 0 -141 151q-187 -153 -324 -153q-94 0 -159.5 61.5t-65.5 155.5q0 147 156 243q94 60 391 166v86q0 103 -23 144 q-35 67 -149 67q-56 0 -99 -22q-55 -29 -55 -78q0 -14 5 -40t5 -40q0 -90 -92 -90q-41 0 -69.5 26.5t-28.5 67.5q0 111 133 174q108 54 229 54q207 0 281 -130q39 -69 39 -202v-406q0 -59 8 -82q14 -39 57 -39q35 0 56 13q12 8 22 8q17 0 17 -17q0 -14 -15 -30zM593 1274 q0 53 -35 88t-88 35q-51 0 -87 -36t-36 -87q0 -49 36 -85t87 -36t87 35t36 86zM626 240v321q-357 -112 -357 -291q0 -69 43 -116.5t113 -47.5q66 0 127 33q74 41 74 101zM484 961z" />
<glyph unicode="&#xe6;" horiz-adv-x="1366" d="M1316 285q-45 -140 -133 -224q-94 -88 -213 -88q-221 0 -332 158q-23 -14 -55 -43q-60 -45 -78 -57q-105 -60 -209 -60q-96 0 -159.5 67.5t-63.5 162.5q0 100 61 170q45 49 152 104q157 80 276 123v90q0 80 -40 124t-107 44q-54 0 -94 -25q-48 -30 -48 -79 q0 -123 -34 -148q-19 -12 -45 -12q-39 0 -65 27.5t-26 66.5q0 123 152 193q80 34 184 34q125 0 187 -34q35 -19 49 -29q22 -19 35 -43q116 117 293 117q126 0 223 -95q35 -36 65 -149q6 -18 6 -39q0 -86 -88 -86h-477v-61q0 -197 80 -293q70 -84 195 -84q67 0 145 53 t125 139q10 23 25 23q18 0 18 -25q0 -10 -4 -22zM919 852q-66 0 -123.5 -72.5t-65.5 -161.5h322q47 0 47 48q0 65 -56.5 125.5t-123.5 60.5zM609 184q-47 101 -47 258v90q-135 -43 -248 -129q-73 -55 -73 -145q0 -74 44 -126t115 -52q74 0 209 104zM970 924z" />
<glyph unicode="&#xe7;" horiz-adv-x="940" d="M872 299q-53 -137 -157 -223q-115 -94 -256 -94q-185 0 -299 135q-111 127 -111 313q0 207 135 351.5t342 144.5q103 0 199 -49q119 -60 119 -152q0 -88 -99 -88q-79 0 -104 90l-10 47q-25 94 -137 94q-136 0 -213 -114q-68 -101 -68 -242q0 -154 86 -264 q94 -119 246 -119q86 0 170 61q71 54 108 125q13 23 29 23q22 0 22 -25q0 -6 -2 -14zM604 -209q0 -82 -65.5 -131t-149.5 -49q-37 0 -92 6v43q27 -4 47 -4q47 0 84 31.5t37 79.5q0 30 -23.5 51.5t-56.5 21.5q-10 0 -27 -2l111 178h61l-51 -79q125 -31 125 -146z" />
<glyph unicode="&#xe8;" horiz-adv-x="940" d="M669 1057h-84l-314 180q-63 35 -63 78q0 59 70 59q40 0 90 -43zM876 266q-60 -127 -176.5 -209t-251.5 -82q-189 0 -302 140q-106 131 -106 321q0 203 121 344.5t323 141.5q146 0 252.5 -93.5t106.5 -187.5q0 -86 -101 -86h-550q8 -182 83 -297q91 -139 259 -139 q172 0 296 172q17 20 33 20q35 0 13 -45zM628 682q-37 168 -203 168q-100 0 -164 -74q-53 -63 -63 -160h376q66 0 54 66zM507 967zM470 922z" />
<glyph unicode="&#xe9;" horiz-adv-x="940" d="M634 1333q0 -43 -62 -80l-315 -178h-82l301 273q47 45 90 45q68 0 68 -60zM876 266q-60 -127 -176.5 -209t-251.5 -82q-189 0 -302 140q-106 131 -106 321q0 203 121 344.5t323 141.5q146 0 252.5 -93.5t106.5 -187.5q0 -86 -101 -86h-550q8 -182 83 -297 q91 -139 259 -139q172 0 296 172q17 20 33 20q35 0 13 -45zM628 682q-37 168 -203 168q-100 0 -164 -74q-53 -63 -63 -160h376q66 0 54 66zM431 985zM470 922z" />
<glyph unicode="&#xea;" horiz-adv-x="940" d="M730 1055h-31l-274 213l-227 -213h-31l188 329h185zM876 266q-60 -127 -176.5 -209t-251.5 -82q-189 0 -302 140q-106 131 -106 321q0 203 121 344.5t323 141.5q146 0 252.5 -93.5t106.5 -187.5q0 -86 -101 -86h-550q8 -182 83 -297q91 -139 259 -139q172 0 296 172 q17 20 33 20q35 0 13 -45zM628 682q-37 168 -203 168q-100 0 -164 -74q-53 -63 -63 -160h376q66 0 54 66zM470 922z" />
<glyph unicode="&#xeb;" horiz-adv-x="940" d="M697 1174q0 -39 -26.5 -66t-65.5 -27t-66.5 28t-27.5 65q0 38 27.5 66t66.5 28t65.5 -28t26.5 -66zM396 1174q0 -37 -27.5 -65t-64.5 -28q-39 0 -66.5 28t-27.5 65q0 38 27.5 66t64.5 28q41 0 67.5 -27t26.5 -67zM876 266q-60 -127 -176.5 -209t-251.5 -82 q-189 0 -302 140q-106 131 -106 321q0 203 121 344.5t323 141.5q146 0 252.5 -93.5t106.5 -187.5q0 -86 -101 -86h-550q8 -182 83 -297q91 -139 259 -139q172 0 296 172q17 20 33 20q35 0 13 -45zM628 682q-37 168 -203 168q-100 0 -164 -74q-53 -63 -63 -160h376 q66 0 54 66zM470 922z" />
<glyph unicode="&#xec;" horiz-adv-x="569" d="M514 1065h-82l-315 178q-64 35 -64 80q0 57 70 57q41 0 90 -43zM518 0h-444v37q102 0 127 55q12 29 12 115v352q0 213 -31 240q-14 12 -41 12q-26 0 -67 -16l-15 36l277 111h43v-735q0 -127 51 -158q25 -12 88 -12v-37zM352 975z" />
<glyph unicode="&#xed;" horiz-adv-x="569" d="M444 1323q0 -43 -61 -80l-315 -178h-82l301 272q47 45 90 45q67 0 67 -59zM518 0h-444v37q102 0 127 55q12 29 12 115v352q0 213 -31 240q-14 12 -41 12q-26 0 -67 -16l-15 36l277 111h43v-735q0 -127 51 -158q25 -12 88 -12v-37zM242 975z" />
<glyph unicode="&#xee;" horiz-adv-x="569" d="M575 1055h-30l-273 213l-229 -213h-31l191 329h182zM518 0h-444v37q102 0 127 55q12 29 12 115v352q0 213 -31 240q-14 12 -41 12q-26 0 -67 -16l-15 36l277 111h43v-735q0 -127 51 -158q25 -12 88 -12v-37z" />
<glyph unicode="&#xef;" horiz-adv-x="569" d="M519 1174q0 -39 -26.5 -66t-65.5 -27t-66.5 27t-27.5 66q0 38 27.5 66t66.5 28t65.5 -28t26.5 -66zM218 1174q0 -37 -27.5 -65t-64.5 -28q-39 0 -66.5 27t-27.5 66q0 38 27.5 66t64.5 28q41 0 67.5 -27t26.5 -67zM517 0h-444v37q102 0 127 55q12 29 12 115v352 q0 213 -31 240q-14 12 -41 12q-26 0 -67 -16l-15 36l277 111h43v-735q0 -127 51 -158q25 -12 88 -12v-37z" />
<glyph unicode="&#xf1;" horiz-adv-x="1024" d="M830 1356q3 -168 -96 -232q-47 -30 -94 -30q-78 0 -195 80q-90 61 -129 61q-41 0 -63 -37q-12 -16 -29 -100h-32q8 258 188 258q76 0 203 -84q84 -55 123 -55q71 0 94 139h30zM1015 0h-420q-16 0 -14 14q0 17 14 19q86 10 111 51q18 31 18 102v435q0 194 -160 194 q-114 0 -213 -108v-521q0 -100 35 -122.5t86 -28.5q21 -4 21 -19q0 -16 -21 -16h-422q-14 0 -14 14q0 17 14 19q70 8 99 45q20 26 20 108v568q0 73 -57 73q-11 0 -22 -3t-34 -13q-6 -2 -12 -2q-10 0 -16 10q-4 12 2 23q12 20 65 45q62 31 127 31q123 0 123 -136v-2 q135 144 313 144q242 0 242 -281v-457q0 -100 35 -120q14 -13 80 -31q18 -4 18 -19q0 -16 -18 -16z" />
<glyph unicode="&#xf2;" horiz-adv-x="1024" d="M770 1057h-82l-315 180q-62 35 -62 78q0 59 70 59q41 0 90 -43zM993 434q0 -201 -135 -333t-332 -132q-207 0 -340 137.5t-133 350.5q0 200 133 332.5t334 132.5q217 0 345 -134.5t128 -353.5zM795 385q2 27 2 53q0 152 -60 262q-73 131 -211 144q-125 12 -200 -103 q-62 -94 -74 -233q-4 -29 -4 -59q0 -160 59 -271q74 -137 215 -137q123 0 199 117q63 94 74 227zM608 967zM530 922z" />
<glyph unicode="&#xf3;" horiz-adv-x="1024" d="M723 1333q0 -45 -61 -80l-316 -178h-84l301 273q49 45 90 45q70 0 70 -60zM993 434q0 -201 -135 -333t-332 -132q-207 0 -340 137.5t-133 350.5q0 200 133 332.5t334 132.5q217 0 345 -134.5t128 -353.5zM795 385q2 27 2 53q0 152 -60 262q-73 131 -211 144 q-125 12 -200 -103q-62 -94 -74 -233q-4 -29 -4 -59q0 -160 59 -271q74 -137 215 -137q123 0 199 117q63 94 74 227zM518 985zM530 922z" />
<glyph unicode="&#xf4;" horiz-adv-x="1024" d="M805 1055h-31l-272 213l-230 -213h-30l188 329h184zM993 434q0 -201 -135 -333t-332 -132q-207 0 -340 137.5t-133 350.5q0 200 133 332.5t334 132.5q217 0 345 -134.5t128 -353.5zM795 385q2 27 2 53q0 152 -60 262q-73 131 -211 144q-125 12 -200 -103 q-62 -94 -74 -233q-4 -29 -4 -59q0 -160 59 -271q74 -137 215 -137q123 0 199 117q63 94 74 227zM530 922z" />
<glyph unicode="&#xf5;" horiz-adv-x="1024" d="M831 1346q3 -168 -96 -232q-47 -31 -94 -31q-80 0 -197 80q-88 62 -127 62q-41 0 -65 -37q-10 -17 -29 -101h-30q6 259 188 259q76 0 203 -84q82 -56 121 -56q71 0 96 140h30zM993 434q0 -201 -135 -333t-332 -132q-207 0 -340 137.5t-133 350.5q0 200 133 332.5 t334 132.5q217 0 345 -134.5t128 -353.5zM795 385q2 27 2 53q0 152 -60 262q-73 131 -211 144q-125 12 -200 -103q-62 -94 -74 -233q-4 -29 -4 -59q0 -160 59 -271q74 -137 215 -137q123 0 199 117q63 94 74 227zM530 922z" />
<glyph unicode="&#xf6;" horiz-adv-x="1024" d="M776 1171q0 -36 -26.5 -64t-65.5 -28t-65.5 28t-26.5 64q0 39 26.5 67t65.5 28t65.5 -27t26.5 -68zM475 1171q0 -36 -26.5 -64t-65.5 -28t-65.5 28t-26.5 64q0 39 26.5 67t65.5 28t65.5 -27t26.5 -68zM993 434q0 -201 -135 -333t-332 -132q-207 0 -340 137.5t-133 350.5 q0 200 133 332.5t334 132.5q217 0 345 -134.5t128 -353.5zM795 385q2 27 2 53q0 152 -60 262q-73 131 -211 144q-125 12 -200 -103q-62 -94 -74 -233q-4 -29 -4 -59q0 -160 59 -271q74 -137 215 -137q123 0 199 117q63 94 74 227zM530 922z" />
<glyph unicode="&#xf7;" horiz-adv-x="1124" d="M648 987q0 -35 -25.5 -60.5t-62.5 -25.5q-35 0 -61.5 25.5t-26.5 60.5q0 37 25.5 62.5t62.5 25.5q39 0 63.5 -24.5t24.5 -63.5zM1101 641h-1079v82h1079v-82zM648 367q0 -37 -25.5 -62.5t-62.5 -25.5q-35 0 -61.5 25.5t-26.5 62.5q0 36 26.5 62t61.5 26q39 0 63.5 -26 t24.5 -62z" />
<glyph unicode="&#xf8;" horiz-adv-x="1024" d="M984 936l-135 -152q106 -135 106 -313q0 -123 -57 -244q-61 -127 -162.5 -191.5t-228.5 -64.5q-152 0 -287 115l-135 -154l-47 43l141 160q-106 131 -106 320q0 120 61.5 241t161.5 183.5t223 62.5q154 0 287 -111l131 148zM704 719q-91 158 -218 158q-227 0 -227 -345 q0 -124 39 -262zM769 401q0 121 -39 252l-401 -448q88 -162 217 -162q223 0 223 358z" />
<glyph unicode="&#xf9;" horiz-adv-x="1024" d="M743 1071h-81l-316 178q-61 35 -61 80q0 60 67 60q43 0 90 -46zM1022 74q-21 -25 -55 -47q-60 -39 -119 -39q-55 0 -93 36.5t-38 102.5v31q-158 -176 -316 -176q-114 0 -181.5 72.5t-67.5 189.5v512q0 71 -56 71q-12 0 -23.5 -3t-33.5 -13q-6 -2 -12 -2q-19 0 -19 20 q0 7 2 13q15 20 66 45q63 31 129 31q123 0 123 -136v-501q0 -183 159 -183q115 0 215 113v543q0 73 -55 73q-12 0 -23.5 -3t-33.5 -13q-6 -2 -12 -2q-11 0 -17 10q-4 12 2 23q15 20 66 45q63 31 129 31q123 0 123 -136v-604q0 -80 63 -80q33 0 53 15q11 6 21 6q18 0 18 -17 q0 -12 -14 -28zM582 981z" />
<glyph unicode="&#xfa;" horiz-adv-x="1024" d="M666 1317q0 -45 -62 -80l-315 -178h-84l301 272q49 45 90 45q70 0 70 -59zM1022 74q-21 -25 -55 -47q-60 -39 -119 -39q-55 0 -93 36.5t-38 102.5v31q-158 -176 -316 -176q-114 0 -181.5 72.5t-67.5 189.5v512q0 71 -56 71q-12 0 -23.5 -3t-33.5 -13q-6 -2 -12 -2 q-19 0 -19 20q0 7 2 13q15 20 66 45q63 31 129 31q123 0 123 -136v-501q0 -183 159 -183q115 0 215 113v543q0 73 -55 73q-12 0 -23.5 -3t-33.5 -13q-6 -2 -12 -2q-11 0 -17 10q-4 12 2 23q15 20 66 45q63 31 129 31q123 0 123 -136v-604q0 -80 63 -80q33 0 53 15q11 6 21 6 q18 0 18 -17q0 -12 -14 -28zM463 969z" />
<glyph unicode="&#xfb;" horiz-adv-x="1024" d="M786 1051h-32l-273 213l-229 -213h-29l189 331h184zM1022 74q-21 -25 -55 -47q-60 -39 -119 -39q-55 0 -93 36.5t-38 102.5v31q-158 -176 -316 -176q-114 0 -181.5 72.5t-67.5 189.5v512q0 71 -56 71q-12 0 -23.5 -3t-33.5 -13q-6 -2 -12 -2q-19 0 -19 20q0 7 2 13 q15 20 66 45q63 31 129 31q123 0 123 -136v-501q0 -183 159 -183q115 0 215 113v543q0 73 -55 73q-12 0 -23.5 -3t-33.5 -13q-6 -2 -12 -2q-11 0 -17 10q-4 12 2 23q15 20 66 45q63 31 129 31q123 0 123 -136v-604q0 -80 63 -80q33 0 53 15q11 6 21 6q18 0 18 -17 q0 -12 -14 -28z" />
<glyph unicode="&#xfc;" horiz-adv-x="1024" d="M711 1161q0 -39 -27 -65.5t-66 -26.5q-38 0 -65 26.5t-27 65.5t27 65.5t65 26.5q39 0 66 -26.5t27 -65.5zM410 1161q0 -39 -27 -65.5t-66 -26.5q-38 0 -65 26.5t-27 65.5q0 37 27 64.5t65 27.5q39 0 66 -26.5t27 -65.5zM1022 74q-21 -25 -55 -47q-60 -39 -119 -39 q-55 0 -93 36.5t-38 102.5v31q-158 -176 -316 -176q-114 0 -181.5 72.5t-67.5 189.5v512q0 71 -56 71q-12 0 -23.5 -3t-33.5 -13q-6 -2 -12 -2q-19 0 -19 20q0 7 2 13q15 20 66 45q63 31 129 31q123 0 123 -136v-501q0 -183 159 -183q115 0 215 113v543q0 73 -55 73 q-12 0 -23.5 -3t-33.5 -13q-6 -2 -12 -2q-11 0 -17 10q-4 12 2 23q15 20 66 45q63 31 129 31q123 0 123 -136v-604q0 -80 63 -80q33 0 53 15q11 6 21 6q18 0 18 -17q0 -12 -14 -28z" />
<glyph unicode="&#xff;" horiz-adv-x="1024" d="M794 1237q0 -39 -27 -65.5t-66 -26.5q-38 0 -65 27.5t-27 64.5q0 39 27 66.5t65 27.5q39 0 66 -27.5t27 -66.5zM493 1237q0 -37 -27 -64.5t-66 -27.5t-65.5 27.5t-26.5 64.5q0 39 26.5 66.5t65.5 27.5t66 -26.5t27 -67.5zM992 874q-37 -8 -51 -22q-18 -23 -55 -115 l-309 -774q-74 -186 -125 -262q-99 -141 -234 -141q-63 0 -106 26q-54 31 -54 88q0 90 109 90q27 0 80 -18t76 -18q53 0 122 125q64 114 64 174q0 20 -10 43l-332 678q-37 75 -66 100q-16 16 -55 22q-18 4 -18 21q0 18 18 18h402q16 0 16 -16q2 -19 -12 -21q-43 -4 -58 -8 q-37 -10 -47 -28q-14 -25 17 -91l241 -512l195 515q24 61 10 90q-16 28 -82 34q-14 2 -12 19q0 18 16 18h260q19 0 19 -16t-19 -19z" />
<glyph unicode="&#x141;" horiz-adv-x="1069" d="M1026 315l-98 -315h-897v31h37q94 0 118 63q11 27 11 113v256l-179 -141v77l179 150v401q0 80 -2 90q-9 47 -48 70q-28 18 -79 18h-37v31h516v-31h-51q-107 0 -129 -77q-7 -21 -7 -101v-266l195 160v-80l-195 -164v-387q0 -61 2 -74q9 -39 41 -55q21 -8 99 -8h131 q121 0 164 12q133 39 200 234z" />
<glyph unicode="&#x142;" horiz-adv-x="487" d="M470 743l-145 -120v-447q0 -113 35.5 -130t89.5 -15v-31h-396v31h21q78 -4 100 47q8 22 8 108v324l-157 -131v72l157 131v305q0 123 -8 157q-10 50 -55 50q-15 0 -58 -15l-8 31l242 107h29v-521l145 121v-74z" />
<glyph unicode="&#x152;" horiz-adv-x="1556" d="M1503 276l-51 -204q-18 -72 -104 -72h-494q-12 -2 -143 -8q-90 -6 -123 -6q-312 0 -453 288q-72 140 -72 304q0 221 121 389q146 202 422 202q10 0 166 -6q135 -4 152 -4h342q61 0 92 4q49 11 51 -37l8 -219q0 -24 -18 -24q-19 0 -27 24q-16 47 -33 94q-14 41 -34 58 q-39 28 -199 33l-162 4v-457l137 2q115 4 144 35q22 24 49 115q8 26 22 26q19 0 19 -26v-359q0 -24 -17 -24q-18 0 -24 18q-25 88 -49 115q-31 32 -144 32h-137v-434q0 -51 34 -61t124 -10q119 0 203 38q71 33 153 191q8 14 23 14q30 0 22 -35zM780 291v600q0 82 -6 110 q-12 64 -55 88.5t-109 24.5q-229 0 -309 -252q-41 -131 -41 -291q0 -317 154 -452q80 -72 192 -72q127 0 160 82q14 39 14 162z" />
<glyph unicode="&#x153;" horiz-adv-x="1478" d="M1421 285q-30 -127 -118 -217q-95 -95 -207 -95q-195 0 -293 170q0 -2 2 -6q-127 -157 -324 -157q-190 0 -309 137q-113 129 -113 323q0 203 111 342q121 148 317 148q109 0 188 -42t138 -118l2 4q111 150 303 150q101 0 179.5 -70t109.5 -184q4 -19 4 -37q0 -78 -86 -78 h-463q8 -229 94 -333.5t195 -104.5q147 0 229 192q11 25 25 25q18 0 18 -31q0 -8 -2 -18zM1055 852q-68 0 -124.5 -72.5t-64.5 -161.5h301q47 0 47 48q0 65 -47 125.5t-112 60.5zM717 377q0 186 -47 313q-66 187 -219 187q-113 0 -164 -115q-37 -82 -37 -227 q0 -252 102 -398q64 -88 156 -88q209 0 209 328zM1106 924z" />
<glyph unicode="&#x160;" horiz-adv-x="937" d="M760 1620l-191 -332h-182l-190 332h30l273 -213l229 213h31zM862 299q0 -137 -104.5 -229.5t-286.5 -92.5q-131 0 -270 37q-62 19 -74 107l-35 215q-4 31 23 31q20 0 26 -15q47 -125 115 -211q76 -98 221 -98q92 0 149.5 55.5t57.5 145.5q0 86 -61 147q-39 41 -170 121 l-150 92q-182 115 -182 270q0 134 88 222t254 88q188 0 270 -64q64 -49 70 -121l18 -188q4 -27 -24 -27q-25 0 -31 19q-55 182 -143 244q-95 65 -168 65q-74 0 -126.5 -43t-52.5 -117q0 -112 168 -217l154 -94q129 -80 182 -137q82 -90 82 -205z" />
<glyph unicode="&#x161;" horiz-adv-x="796" d="M679 1384l-188 -329h-185l-190 329h30l275 -210l227 210h31zM736 236q0 -125 -110 -195q-92 -57 -224 -57q-114 0 -213 51q-108 57 -108 141q0 68 76 68q65 0 78 -78q8 -47 62 -90t105 -43q185 0 185 137q0 74 -76 131q-25 18 -158 88q-151 82 -202 150q-46 55 -46 143 q0 109 85 179.5t210 70.5q115 0 195 -45q90 -51 90 -135q0 -68 -72 -68q-65 0 -75 68q-19 129 -144 129q-71 0 -114 -40t-43 -98q0 -104 194 -190q305 -139 305 -317z" />
<glyph unicode="&#x178;" horiz-adv-x="1478" d="M919 1454q0 -39 -27 -65.5t-66 -26.5q-36 0 -64 26.5t-28 65.5t26.5 65.5t65.5 26.5t66 -26.5t27 -65.5zM617 1454q0 -39 -26.5 -65.5t-65.5 -26.5q-37 0 -64.5 26.5t-27.5 65.5t26.5 65.5t65.5 26.5t65.5 -26.5t26.5 -65.5zM1220 1118q-121 -33 -195 -141l-295 -447 v-331q0 -105 22.5 -123.5t129.5 -36.5q26 -4 26 -23q0 -16 -26 -16h-482q-26 0 -26 16q0 19 26 23q101 18 121 35q31 24 31 125v315l-289 422q-80 117 -129 154q-29 20 -80 28q-18 2 -18 21q0 20 18 20h465q15 0 17 -18q0 -19 -15 -21q-59 -10 -65 -10q-29 -8 -35 -23 q-21 -43 12 -94l260 -385l230 359q41 65 41 96q0 33 -39 45q-8 4 -64 12q-14 2 -14 21q0 18 14 18h355q20 0 20 -20q0 -17 -16 -21z" />
<glyph unicode="&#x17d;" horiz-adv-x="1101" d="M816 1616l-188 -332h-185l-190 332h33l272 -213l229 213h29zM1043 291l-30 -236q-8 -55 -78 -55h-868q-37 0 -37 29q0 14 12 30l739 1033h-424q-125 0 -172 -52q-55 -59 -77 -153q-7 -25 -31 -25q-21 0 -19 29l25 213q6 53 59 53h815q37 0 37 -33q0 -12 -6 -22 l-733 -1034h408q182 0 239 53q66 57 98 178q7 25 27 25q21 0 16 -33z" />
<glyph unicode="&#x17e;" horiz-adv-x="909" d="M752 1384l-189 -329h-184l-191 329h31l275 -210l229 210h29zM885 254l-23 -209q-4 -45 -63 -45h-711q-27 0 -27 31q0 10 7 18l550 795h-276q-113 0 -146.5 -37t-45.5 -123q-5 -22 -23 -22q-14 0 -14 22l4 174q0 45 49 45h651q31 0 31 -29q0 -10 -4 -18l-561 -795h292 q152 0 193 37q47 45 80 162q6 21 20 21q19 0 17 -27z" />
<glyph unicode="&#x2c6;" horiz-adv-x="681" d="M623 1055h-31l-273 213l-229 -213h-31l191 329h182z" />
<glyph unicode="&#x2c7;" horiz-adv-x="681" d="M623 1384l-189 -329h-184l-191 329h31l275 -210l229 210h29z" />
<glyph unicode="&#x2db;" horiz-adv-x="681" d="M608 -287q-137 -75 -231 -75q-92 0 -156 43q-74 51 -74 141q0 119 80 194h54q-27 -53 -27 -100q0 -88 61.5 -141.5t153.5 -53.5q55 0 119 23z" />
<glyph unicode="&#x2dd;" horiz-adv-x="681" d="M642 1391l-217 -347h-35l66 347h186zM331 1391l-221 -347h-33l65 347h189z" />
<glyph unicode="&#x591;" d="M609 712q0 -111 -76.5 -187t-187.5 -76q-108 0 -185 77t-77 186q0 110 77 187t185 77q111 0 187.5 -77t76.5 -187zM536 712q0 82 -55.5 137t-135.5 55t-135 -55t-55 -137q0 -78 55 -134.5t135 -56.5t135.5 56.5t55.5 134.5z" />
<glyph unicode="&#x592;" d="M609 712q0 -111 -76.5 -187t-187.5 -76q-108 0 -185 77t-77 186q0 110 77 187t185 77q111 0 187.5 -77t76.5 -187zM536 712q0 82 -55.5 137t-135.5 55t-135 -55t-55 -137q0 -78 55 -134.5t135 -56.5t135.5 56.5t55.5 134.5z" />
<glyph unicode="&#x593;" d="M537 712q0 82 -55.5 137t-135.5 55t-135 -55t-55 -137q0 -78 55 -134.5t135 -56.5t135.5 56.5t55.5 134.5z" />
<glyph unicode="&#x594;" horiz-adv-x="369" d="M258 -211q0 -37 -63 -37h-33q-51 0 -51 31v1644q0 31 51 31h33q63 0 63 -39v-1630z" />
<glyph unicode="&#x595;" d="M609 712q0 -111 -76.5 -187t-187.5 -76q-108 0 -185 77t-77 186q0 110 77 187t185 77q111 0 187.5 -77t76.5 -187zM536 712q0 82 -55.5 137t-135.5 55t-135 -55t-55 -137q0 -78 55 -134.5t135 -56.5t135.5 56.5t55.5 134.5z" />
<glyph unicode="&#x596;" d="M609 712q0 -111 -76.5 -187t-187.5 -76q-108 0 -185 77t-77 186q0 110 77 187t185 77q111 0 187.5 -77t76.5 -187zM536 712q0 82 -55.5 137t-135.5 55t-135 -55t-55 -137q0 -78 55 -134.5t135 -56.5t135.5 56.5t55.5 134.5z" />
<glyph unicode="&#x597;" d="M609 712q0 -111 -76.5 -187t-187.5 -76q-108 0 -185 77t-77 186q0 110 77 187t185 77q111 0 187.5 -77t76.5 -187zM536 712q0 82 -55.5 137t-135.5 55t-135 -55t-55 -137q0 -78 55 -134.5t135 -56.5t135.5 56.5t55.5 134.5z" />
<glyph unicode="&#x598;" d="M609 712q0 -111 -76.5 -187t-187.5 -76q-108 0 -185 77t-77 186q0 110 77 187t185 77q111 0 187.5 -77t76.5 -187zM536 712q0 82 -55.5 137t-135.5 55t-135 -55t-55 -137q0 -78 55 -134.5t135 -56.5t135.5 56.5t55.5 134.5z" />
<glyph unicode="&#x599;" d="M609 712q0 -111 -76.5 -187t-187.5 -76q-108 0 -185 77t-77 186q0 110 77 187t185 77q111 0 187.5 -77t76.5 -187zM536 712q0 82 -55.5 137t-135.5 55t-135 -55t-55 -137q0 -78 55 -134.5t135 -56.5t135.5 56.5t55.5 134.5z" />
<glyph unicode="&#x59a;" d="M609 712q0 -111 -76.5 -187t-187.5 -76q-108 0 -185 77t-77 186q0 110 77 187t185 77q111 0 187.5 -77t76.5 -187zM536 712q0 82 -55.5 137t-135.5 55t-135 -55t-55 -137q0 -78 55 -134.5t135 -56.5t135.5 56.5t55.5 134.5z" />
<glyph unicode="&#x59b;" d="M609 712q0 -111 -76.5 -187t-187.5 -76q-108 0 -185 77t-77 186q0 110 77 187t185 77q111 0 187.5 -77t76.5 -187zM536 712q0 82 -55.5 137t-135.5 55t-135 -55t-55 -137q0 -78 55 -134.5t135 -56.5t135.5 56.5t55.5 134.5z" />
<glyph unicode="&#x59c;" d="M609 712q0 -111 -76.5 -187t-187.5 -76q-108 0 -185 77t-77 186q0 110 77 187t185 77q111 0 187.5 -77t76.5 -187zM536 712q0 82 -55.5 137t-135.5 55t-135 -55t-55 -137q0 -78 55 -134.5t135 -56.5t135.5 56.5t55.5 134.5z" />
<glyph unicode="&#x59d;" d="M609 712q0 -111 -76.5 -187t-187.5 -76q-108 0 -185 77t-77 186q0 110 77 187t185 77q111 0 187.5 -77t76.5 -187zM536 712q0 82 -55.5 137t-135.5 55t-135 -55t-55 -137q0 -78 55 -134.5t135 -56.5t135.5 56.5t55.5 134.5z" />
<glyph unicode="&#x59e;" d="M609 712q0 -111 -76.5 -187t-187.5 -76q-108 0 -185 77t-77 186q0 110 77 187t185 77q111 0 187.5 -77t76.5 -187zM536 712q0 82 -55.5 137t-135.5 55t-135 -55t-55 -137q0 -78 55 -134.5t135 -56.5t135.5 56.5t55.5 134.5z" />
<glyph unicode="&#x59f;" d="M609 712q0 -111 -76.5 -187t-187.5 -76q-108 0 -185 77t-77 186q0 110 77 187t185 77q111 0 187.5 -77t76.5 -187zM536 712q0 82 -55.5 137t-135.5 55t-135 -55t-55 -137q0 -78 55 -134.5t135 -56.5t135.5 56.5t55.5 134.5z" />
<glyph unicode="&#x5a0;" d="M609 712q0 -111 -76.5 -187t-187.5 -76q-108 0 -185 77t-77 186q0 110 77 187t185 77q111 0 187.5 -77t76.5 -187zM536 712q0 82 -55.5 137t-135.5 55t-135 -55t-55 -137q0 -78 55 -134.5t135 -56.5t135.5 56.5t55.5 134.5z" />
<glyph unicode="&#x5a1;" d="M609 712q0 -111 -76.5 -187t-187.5 -76q-108 0 -185 77t-77 186q0 110 77 187t185 77q111 0 187.5 -77t76.5 -187zM536 712q0 82 -55.5 137t-135.5 55t-135 -55t-55 -137q0 -78 55 -134.5t135 -56.5t135.5 56.5t55.5 134.5z" />
<glyph unicode="&#x5a3;" d="M609 712q0 -111 -76.5 -187t-187.5 -76q-108 0 -185 77t-77 186q0 110 77 187t185 77q111 0 187.5 -77t76.5 -187zM536 712q0 82 -55.5 137t-135.5 55t-135 -55t-55 -137q0 -78 55 -134.5t135 -56.5t135.5 56.5t55.5 134.5z" />
<glyph unicode="&#x5a4;" d="M609 712q0 -111 -76.5 -187t-187.5 -76q-108 0 -185 77t-77 186q0 110 77 187t185 77q111 0 187.5 -77t76.5 -187zM536 712q0 82 -55.5 137t-135.5 55t-135 -55t-55 -137q0 -78 55 -134.5t135 -56.5t135.5 56.5t55.5 134.5z" />
<glyph unicode="&#x5a5;" d="M609 712q0 -111 -76.5 -187t-187.5 -76q-108 0 -185 77t-77 186q0 110 77 187t185 77q111 0 187.5 -77t76.5 -187zM536 712q0 82 -55.5 137t-135.5 55t-135 -55t-55 -137q0 -78 55 -134.5t135 -56.5t135.5 56.5t55.5 134.5z" />
<glyph unicode="&#x5a6;" d="M609 712q0 -111 -76.5 -187t-187.5 -76q-108 0 -185 77t-77 186q0 110 77 187t185 77q111 0 187.5 -77t76.5 -187zM536 712q0 82 -55.5 137t-135.5 55t-135 -55t-55 -137q0 -78 55 -134.5t135 -56.5t135.5 56.5t55.5 134.5z" />
<glyph unicode="&#x5a7;" d="M609 712q0 -111 -76.5 -187t-187.5 -76q-108 0 -185 77t-77 186q0 110 77 187t185 77q111 0 187.5 -77t76.5 -187zM536 712q0 82 -55.5 137t-135.5 55t-135 -55t-55 -137q0 -78 55 -134.5t135 -56.5t135.5 56.5t55.5 134.5z" />
<glyph unicode="&#x5a8;" d="M609 712q0 -111 -76.5 -187t-187.5 -76q-108 0 -185 77t-77 186q0 110 77 187t185 77q111 0 187.5 -77t76.5 -187zM536 712q0 82 -55.5 137t-135.5 55t-135 -55t-55 -137q0 -78 55 -134.5t135 -56.5t135.5 56.5t55.5 134.5z" />
<glyph unicode="&#x5a9;" d="M609 712q0 -111 -76.5 -187t-187.5 -76q-108 0 -185 77t-77 186q0 110 77 187t185 77q111 0 187.5 -77t76.5 -187zM536 712q0 82 -55.5 137t-135.5 55t-135 -55t-55 -137q0 -78 55 -134.5t135 -56.5t135.5 56.5t55.5 134.5z" />
<glyph unicode="&#x5aa;" d="M609 712q0 -111 -76.5 -187t-187.5 -76q-108 0 -185 77t-77 186q0 110 77 187t185 77q111 0 187.5 -77t76.5 -187zM536 712q0 82 -55.5 137t-135.5 55t-135 -55t-55 -137q0 -78 55 -134.5t135 -56.5t135.5 56.5t55.5 134.5z" />
<glyph unicode="&#x5ab;" d="M609 712q0 -111 -76.5 -187t-187.5 -76q-108 0 -185 77t-77 186q0 110 77 187t185 77q111 0 187.5 -77t76.5 -187zM536 712q0 82 -55.5 137t-135.5 55t-135 -55t-55 -137q0 -78 55 -134.5t135 -56.5t135.5 56.5t55.5 134.5z" />
<glyph unicode="&#x5ac;" d="M609 712q0 -111 -76.5 -187t-187.5 -76q-108 0 -185 77t-77 186q0 110 77 187t185 77q111 0 187.5 -77t76.5 -187zM536 712q0 82 -55.5 137t-135.5 55t-135 -55t-55 -137q0 -78 55 -134.5t135 -56.5t135.5 56.5t55.5 134.5z" />
<glyph unicode="&#x5ad;" d="M609 712q0 -111 -76.5 -187t-187.5 -76q-108 0 -185 77t-77 186q0 110 77 187t185 77q111 0 187.5 -77t76.5 -187zM536 712q0 82 -55.5 137t-135.5 55t-135 -55t-55 -137q0 -78 55 -134.5t135 -56.5t135.5 56.5t55.5 134.5z" />
<glyph unicode="&#x5ae;" d="M609 712q0 -111 -76.5 -187t-187.5 -76q-108 0 -185 77t-77 186q0 110 77 187t185 77q111 0 187.5 -77t76.5 -187zM536 712q0 82 -55.5 137t-135.5 55t-135 -55t-55 -137q0 -78 55 -134.5t135 -56.5t135.5 56.5t55.5 134.5z" />
<glyph unicode="&#x5af;" d="M609 712q0 -111 -76.5 -187t-187.5 -76q-108 0 -185 77t-77 186q0 110 77 187t185 77q111 0 187.5 -77t76.5 -187zM536 712q0 82 -55.5 137t-135.5 55t-135 -55t-55 -137q0 -78 55 -134.5t135 -56.5t135.5 56.5t55.5 134.5z" />
<glyph unicode="&#x5b0;" horiz-adv-x="2" d="M88 -243q0 -35 -25.5 -60.5t-60.5 -25.5q-36 0 -62 25.5t-26 60.5t27 59.5t61 24.5q37 0 61.5 -24.5t24.5 -59.5zM88 -512q0 -34 -25.5 -60t-60.5 -26q-36 0 -62 26t-26 60q0 35 27 59.5t61 24.5q37 0 61.5 -24.5t24.5 -59.5z" />
<glyph unicode="&#x5b1;" horiz-adv-x="2" d="M-137 -243q0 -35 -25.5 -60.5t-60.5 -25.5q-33 0 -59.5 24.5t-26.5 61.5q0 33 25.5 58.5t60.5 25.5q37 0 61.5 -24.5t24.5 -59.5zM98 -243q0 -35 -25.5 -60.5t-60.5 -25.5q-34 0 -60.5 25.5t-26.5 60.5q0 33 27.5 58.5t59.5 25.5q37 0 61.5 -23.5t24.5 -60.5zM-10 -450 q0 -35 -25.5 -60.5t-60.5 -25.5q-33 0 -59.5 24.5t-26.5 61.5q0 35 25.5 59.5t60.5 24.5t60.5 -24.5t25.5 -59.5zM311 -243q0 -29 -22.5 -49.5t-50.5 -20.5q-70 0 -70 70q0 74 70 74q73 0 73 -74zM311 -458q0 -29 -21.5 -50.5t-51.5 -21.5q-70 0 -70 72q0 30 20.5 50.5 t49.5 20.5q73 0 73 -71z" />
<glyph unicode="&#x5b2;" horiz-adv-x="2" d="M287 -243q0 -29 -22.5 -49.5t-51.5 -20.5q-70 0 -70 70q0 74 70 74q74 0 74 -74zM287 -458q0 -29 -21.5 -50.5t-52.5 -21.5q-70 0 -70 72q0 71 70 71q74 0 74 -71zM-258 -305q-26 0 -26 31v66q0 30 26 30h301q27 0 27 -30v-66q0 -31 -27 -31h-301z" />
<glyph unicode="&#x5b3;" horiz-adv-x="2" d="M287 -243q0 -29 -22.5 -49.5t-51.5 -20.5q-70 0 -70 70q0 74 70 74q33 0 53.5 -20.5t20.5 -53.5zM287 -458q0 -29 -21.5 -50.5t-52.5 -21.5q-70 0 -70 72q0 71 70 71q74 0 74 -71zM-258 -178h301q27 0 27 -30v-66q0 -31 -27 -31h-118q0 -43 20 -88l23 -51q8 -16 8 -35 q0 -33 -24.5 -57.5t-59.5 -24.5t-59.5 24.5t-24.5 57.5q0 19 8 35l23 51q22 49 22 88h-119q-26 0 -26 31v66q0 30 26 30z" />
<glyph unicode="&#x5b4;" horiz-adv-x="2" d="M92 -243q0 -35 -27.5 -62.5t-62.5 -27.5q-36 0 -64 27.5t-28 62.5q0 37 28 62.5t64 25.5q39 0 64.5 -25.5t25.5 -62.5z" />
<glyph unicode="&#x5b5;" horiz-adv-x="2" d="M-45 -243q0 -35 -25.5 -60.5t-60.5 -25.5q-34 0 -60 25.5t-26 60.5t26 59.5t60 24.5q86 0 86 -84zM219 -243q0 -35 -25.5 -60.5t-60.5 -25.5t-60.5 25.5t-25.5 60.5t25.5 59.5t60.5 24.5q37 0 61.5 -24.5t24.5 -59.5z" />
<glyph unicode="&#x5b6;" horiz-adv-x="2" d="M-45 -243q0 -35 -25.5 -60.5t-60.5 -25.5q-34 0 -60 25.5t-26 60.5t26 59.5t60 24.5q86 0 86 -84zM219 -243q0 -35 -25.5 -60.5t-60.5 -25.5t-60.5 25.5t-25.5 60.5t25.5 59.5t60.5 24.5q37 0 61.5 -24.5t24.5 -59.5zM94 -468q0 -35 -25.5 -61t-60.5 -26q-34 0 -59.5 26 t-25.5 61q0 34 25.5 58.5t59.5 24.5q37 0 61.5 -24.5t24.5 -58.5z" />
<glyph unicode="&#x5b7;" horiz-adv-x="2" d="M-190 -305q-27 0 -27 31v66q0 30 27 30h383q26 0 26 -30v-66q0 -31 -26 -31h-383z" />
<glyph unicode="&#x5b8;" horiz-adv-x="2" d="M-190 -178h383q26 0 26 -30v-66q0 -31 -26 -31h-158q0 -47 18 -88l23 -51q8 -16 8 -35q0 -35 -24.5 -58.5t-57.5 -23.5q-34 0 -58.5 24.5t-24.5 57.5q0 19 8 35l22 51q21 45 21 88h-160q-27 0 -27 31v66q0 30 27 30z" />
<glyph unicode="&#x5b9;" horiz-adv-x="2" d="M53 1015q-4 -26 -18.5 -35t-33.5 -9q-20 3 -30.5 14.5t-13.5 28.5q0 20 13.5 34.5t31.5 16.5q18 -1 34.5 -11.5t16.5 -38.5z" />
<glyph unicode="&#x5bb;" horiz-adv-x="2" d="M92 -243q0 -35 -25.5 -60.5t-60.5 -25.5t-60.5 25.5t-25.5 60.5t25.5 59.5t60.5 24.5q86 0 86 -84zM235 -417q0 -35 -25.5 -60.5t-60.5 -25.5q-34 0 -59.5 25.5t-25.5 60.5t25.5 59.5t59.5 24.5q37 0 61.5 -23.5t24.5 -60.5zM376 -589q0 -35 -25.5 -60.5t-60.5 -25.5 q-34 0 -60 25.5t-26 60.5q0 32 26 58t60 26q86 0 86 -84z" />
<glyph unicode="&#x5bc;" horiz-adv-x="2" d="M86 457q0 -35 -25.5 -60.5t-60.5 -25.5q-34 0 -60 25.5t-26 60.5q0 32 27 58t59 26q37 0 61.5 -23.5t24.5 -60.5z" />
<glyph unicode="&#x5bd;" horiz-adv-x="2" d="M67 -587q0 -27 -31 -27h-65q-31 0 -31 27v383q0 26 31 26h65q31 0 31 -26v-383z" />
<glyph unicode="&#x5be;" horiz-adv-x="430" d="M395 556q-15 -10 -33 -10q-64 6 -143 -27q-38 -14 -51 -8q-5 0 -8 20q-4 21 5 29q12 18 98 25q73 6 104 0q34 -7 28 -29z" />
<glyph unicode="&#x5bf;" horiz-adv-x="430" d="M395 556q-15 -10 -33 -10q-64 6 -143 -27q-38 -14 -51 -8q-5 0 -8 20q-4 21 5 29q12 18 98 25q73 6 104 0q34 -7 28 -29z" />
<glyph unicode="&#x5c0;" horiz-adv-x="452" d="M635 903q-4 -20 -27 -45q-28 -33 -40 -59q-263 -484 -564 -1043q-35 -71 -98 -88q43 84 164 297q207 404 444 860q54 88 80 93q17 2 30 -1.5t11 -13.5z" />
<glyph unicode="&#x5c1;" horiz-adv-x="2" d="M833 1015q-4 -26 -18.5 -35t-33.5 -9q-20 3 -30.5 14.5t-13.5 28.5q0 20 13.5 34.5t31.5 16.5q18 -1 34.5 -11.5t16.5 -38.5z" />
<glyph unicode="&#x5c2;" horiz-adv-x="2" d="M453 1015q-4 -26 -18.5 -35t-33.5 -9q-20 3 -30.5 14.5t-13.5 28.5q0 20 13.5 34.5t31.5 16.5q18 -1 34.5 -11.5t16.5 -38.5z" />
<glyph unicode="&#x5c3;" horiz-adv-x="290" d="M306 399q0 -26 -41 -66t-65 -34q-31 29 -31 45q0 53 35 72q51 24 63 24q39 0 39 -41zM175 76q0 -27 -40 -67t-66 -34q-31 29 -31 43q0 56 37 74q49 25 61 25q39 0 39 -41z" />
<glyph unicode="&#x5c4;" horiz-adv-x="2" d="M53 1015q-4 -26 -18.5 -35t-33.5 -9q-20 3 -30.5 14.5t-13.5 28.5q0 20 13.5 34.5t31.5 16.5q18 -1 34.5 -11.5t16.5 -38.5z" />
<glyph unicode="&#x5d0;" horiz-adv-x="776" d="M879 496q14 -2 14 -9q0 -10 -20 -14q-146 -31 -277 -80q-137 -49 -352 -186q-14 -25 -49 -76q37 -47 140.5 -88t197.5 -41q33 0 61 6q23 4 23 -22q0 -9 -12 -13q-41 -10 -89 -10q-100 0 -208 39q-101 37 -148 82q-72 -109 -184 -270q-8 -11 -21 -9q-12 0 -8 7 q39 43 162 305q-8 8 -29 41q39 39 121 84l18 30q80 119 238 359q45 74 39 123q-6 39 -8 37q14 16 39 -21q28 -45 -4 -131q-13 -31 -91 -145q-38 -60 -122 -187q157 86 299 127q231 70 270 62z" />
<glyph unicode="&#x5d1;" horiz-adv-x="583" d="M589 276q6 -40 6 -69q0 -76 -50 -136.5t-179 -60.5q-33 0 -91 29q-67 35 -102 80q-66 -72 -168 -182q-20 -17 -37 -17q-8 0 -8 6q0 8 14 23q33 35 96.5 124t75 101t33.5 12q23 2 29 -8q33 -45 93 -86t105 -37q46 4 62 13q41 20 59 82q8 28 8 59q0 96 -79.5 169t-188.5 62 q-18 -2 -18 9q0 22 39 26q16 2 34 2q95 0 172.5 -57.5t94.5 -143.5z" />
<glyph unicode="&#x5d2;" horiz-adv-x="632" d="M770 594q-225 -74 -338 -242q-47 -67 -67 -127q86 17 156 13q36 -5 58.5 -36.5t18.5 -56.5q-10 -75 -120 -75q-23 0 -37 6q-45 12 -119 74q-35 -5 -84 -33q-121 -68 -301 -240q-146 -139 -311 -430q-58 -102 -68 -96q16 71 90 211q111 205 260 352q236 229 395 291 q3 16 23 78q55 131 203 233q114 80 215 107q16 6 22 -11q2 -8 4 -18zM557 160q-4 33 -73 37q-52 2 -109 -25q64 -55 103 -53q28 0 54.5 11t24.5 30z" />
<glyph unicode="&#x5d3;" horiz-adv-x="679" d="M700 362q-37 -38 -156 -94q15 -18 15 -37q0 -45 -76 -114q-47 -39 -96 -78q-86 -70 -218 -117q-8 -2 -8 4q0 19 17 29q258 133 313 256q4 12 -14 31q-131 -39 -265 -39q-133 0 -143 47q-4 29 96 57q78 21 140 25q129 6 213 -41q86 41 161 115q17 16 17 43q0 71 -80 79 q-143 17 -170 17q-107 0 -219 -64q-6 -4 -10 -4q-9 0 9.5 25.5t35.5 40.5q69 67 247 53q242 -18 242 -133q0 -47 -51 -101zM440 260q-56 21 -131 25q-150 8 -174 -35q-4 -10 47 -14q45 -5 94 -5q82 5 164 29z" />
<glyph unicode="&#x5d4;" horiz-adv-x="731" d="M727 385q14 -199 -158 -348q-149 -131 -283 -131q-18 0 -32 4q2 4 -3 7t-5 5q4 4 28 8q146 25 268.5 154t122.5 266q0 43 -14 82q-66 176 -317 176q-101 0 -191 -30q-12 -5 -20 -5q-13 0 -13 13q0 24 25 35q102 41 205 41q155 0 268 -83t119 -194zM446 246 q-22 -90 -151 -178q-121 -82 -189 -68q-10 2 -4 10q6 10 29 17q84 26 172 110t88 129q0 51 -70 51q-16 0 -110 -20q-19 -4 -19 6q0 16 23 29q61 33 139 33q98 0 98 -78q0 -19 -6 -41z" />
<glyph unicode="&#x5d5;" horiz-adv-x="337" d="M392 625q-19 -25 -197 -396q-149 -309 -229 -368q-6 -6 -19 -2q-14 4 -10 10q47 65 55 76q35 55 60 112q96 199 272 588q6 14 23 14q16 0 32.5 -13t12.5 -21z" />
<glyph unicode="&#x5d6;" horiz-adv-x="477" d="M642 586q-107 -23 -228 -92q-155 -88 -205 -195q-16 -35 -16 -74q0 -73 81 -202t81 -187q0 -149 -244 -287q-153 -84 -377 -153q-12 -4 -12 2q0 8 12.5 22.5t18.5 16.5q166 59 276 119q217 116 258 231q10 27 10 53q0 62 -81.5 184.5t-81.5 202.5q0 49 24.5 103.5 t112.5 132.5q117 102 260 151q55 19 88 19q37 0 37 -25q0 -20 -14 -22z" />
<glyph unicode="&#x5d7;" horiz-adv-x="557" d="M561 377q4 -84 -57 -213q-68 -148 -166 -199q-8 -4 -23.5 3t-15.5 16q0 2 2 4q84 43 144 168q55 114 55 217q0 61 -16.5 99t-110.5 34q-68 -107 -164 -287q-45 -94 -92 -188q-45 -86 -115 -129q-4 -2 -6 -4q-4 0 -4 8q0 22 20 53q35 51 140 266q96 193 159 287 q33 47 82 47q21 0 62 -4q94 -8 106 -178z" />
<glyph unicode="&#x5d8;" horiz-adv-x="593" d="M1193 1171q-2 -8 -12 -18q-275 -68 -633 -442q-133 -140 -340 -443q-86 -125 -86 -229q0 -86 39 -92q121 -19 221 108q127 164 185 338q4 10 12 10q22 0 14 -24q-69 -258 -217 -404q-33 -30 -90 -53.5t-102 -23.5q-31 0 -48 10q-61 41 -61 139q0 51 16 98q50 148 225 372 t369 380q217 172 320 217q127 53 188 57z" />
<glyph unicode="&#x5d9;" horiz-adv-x="260" d="M332 487q-31 -75 -74 -133q-25 -32 -52.5 -65t-70.5 -49q-4 -2 -4 4q0 30 29 55q18 16 69 107q11 32 27 79q2 4 37 43q2 4 6 4q12 0 25.5 -14t7.5 -31z" />
<glyph unicode="&#x5da;" horiz-adv-x="661" d="M711 385q-6 -88 -157 -113q-86 -12 -200 -75.5t-187 -139.5q-82 -86 -162 -215q-10 -14 -178 -311q-113 -199 -158 -188q6 12 39 50t108 191q99 197 132 252q81 139 184 250q149 166 354 221q55 15 111 27q53 20 55 57q4 35 -80 63.5t-147 20.5q-41 -4 -117 -16 q-49 -8 -51 -4q-6 8 -6 16q0 21 59 39q121 20 219 8q58 -8 121 -51t61 -82z" />
<glyph unicode="&#x5db;" horiz-adv-x="540" d="M567 311q-12 -192 -268 -276q-102 -35 -239 -35q-134 0 -232 76q-6 4 -6 10q0 14 16 14q4 0 9 -4q86 -55 194 -55q109 0 164 12q123 27 203 88q102 76 90 181q-14 106 -162 106q-49 0 -88 -14q-16 -6 -31 -4q-12 2 -8 8q27 33 100 49q62 14 99 8q170 -18 159 -164z" />
<glyph unicode="&#x5dc;" horiz-adv-x="358" d="M1256 1333q4 0 4 -4q-2 -4 -6 -4q-151 -4 -348 -113q-209 -114 -383 -444q-147 -293 -356 -690q-74 -121 -166 -199q-8 -8 -21.5 9.5t-13.5 35.5q0 13 8 19q103 100 166 215q94 166 207 409q94 201 143 277q115 174 181 246q98 106 243 182q137 71 342 61z" />
<glyph unicode="&#x5dd;" horiz-adv-x="698" d="M718 301q-21 -57 -84.5 -102t-143.5 -45q-26 0 -53 6q-49 12 -95 79.5t-48 67.5q-8 0 -58 -110q-59 -134 -102 -197q-197 -287 -260 -276q289 395 346 555q29 77 31 83q16 33 39 35q16 0 43 -49q41 -74 55 -92q39 -51 94 -55q86 -6 142 57q36 45 43 92q6 39 -25 78 q-37 43 -100 43q-70 0 -152 -37t-88 -35q-31 2 -31 31q0 23 33 37q68 55 227 55q27 0 52 -2q67 -10 107 -53t40 -102q0 -31 -12 -64z" />
<glyph unicode="&#x5de;" horiz-adv-x="653" d="M808 682q4 4 6 4q6 0 2 -22q-6 -25 -17 -43l-206 -369q-4 -6 -66 -129q-35 -70 -67 -100q-25 -25 -48 -25q-16 0 -28 14q-51 60 -72 168q-16 90 4 172q-31 -53 -95.5 -172t-191.5 -344q-65 -108 -211 -190q-8 -6 -14 2q-6 6 0 12q115 68 197 236q151 313 203 399 q28 51 58 102.5t60 73.5q13 10 29 4t18 -20q4 -21 -9 -91.5t-7 -113.5q6 -60 16.5 -121t44.5 -66q21 -4 64 87q63 135 78 159q151 246 252 373z" />
<glyph unicode="&#x5df;" horiz-adv-x="296" d="M422 510q-2 -21 -24 -45q-29 -33 -43 -59q-269 -455 -576 -986q-35 -71 -88 -88q45 84 166 295q207 377 444 805q52 86 80 90q47 6 41 -12z" />
<glyph unicode="&#x5e0;" horiz-adv-x="380" d="M381 555q-129 -393 -323 -702q-236 -375 -449 -486q-133 -69 -240 -69q-153 0 -266 149q-6 8 -4 18q4 11 8 3q99 -136 244 -136q45 0 90 15q168 53 289 168q96 92 233 301q178 272 375 759q2 7 12 7q13 0 24 -8.5t7 -18.5z" />
<glyph unicode="&#x5e1;" horiz-adv-x="757" d="M782 522q21 -10 21 -69q0 -86 -41 -181q-51 -116 -144 -176q-176 -116 -321 -116q-84 0 -154 36q-55 29 -55 115q0 162 193 281q217 131 395 131q65 0 106 -21zM661 498q-149 0 -350 -121q-73 -45 -121.5 -121t-48.5 -137q0 -49 33 -66q53 -28 121 -28q139 0 295 108 q65 45 110 152q41 92 41 161q0 39 -22 48q-10 4 -58 4z" />
<glyph unicode="&#x5e2;" horiz-adv-x="565" d="M841 764q-154 -154 -334 -391q-31 -41 -258 -385q-63 -103 -174 -256q-4 -4 -10 -4q-10 0 -22.5 14t-8.5 27q4 18 29 57q30 51 41 70q47 94 73 163q35 88 68 228q29 116 33 162q8 126 -47 153q-17 6 -37 6q-39 0 -101 -30q-4 -3 -10 12q-6 16 4 22q54 37 123 37 q19 0 37 -4q82 -20 82 -135q-2 -121 -74 -393q6 -8 15 -11q102 156 206 295q70 86 230 285q33 35 88 115q4 4 10 4q12 0 25.5 -11.5t13.5 -21.5q0 -6 -2 -8z" />
<glyph unicode="&#x5e3;" horiz-adv-x="1067" d="M1298 1155q0 -170 -154 -577q-80 -213 -305 -621q-111 -197 -221 -391q-25 -53 -62 -53q-6 0 -12 4t-6 16q0 25 70 135q118 187 192 318q143 260 281 573q176 408 176 600q0 101 -53 119q-23 8 -50 8q-180 0 -491 -271.5t-440 -529.5q-95 -188 -95 -260q0 -78 72 -135 q37 -31 113 -31q98 0 276 52q92 26 185 53q-23 -29 -181 -88q-180 -66 -295 -66q-43 0 -73 13q-156 61 -156 213q0 77 47 172q174 356 516 651q324 278 522 278q144 0 144 -182z" />
<glyph unicode="&#x5e4;" horiz-adv-x="825" d="M854 465q-10 -174 -180 -352q-74 -78 -198 -131.5t-234 -53.5q-88 0 -142.5 34t-54.5 99q0 62 45 142q41 69 94 116q62 54 146 99q102 53 168 53q108 0 104 -143q0 -21 -10 -21q-12 0 -12 17q2 45 -27 76.5t-68 25.5q-108 -23 -243 -125q-54 -39 -97 -106.5t-43 -124.5 q0 -52 41 -82.5t107 -30.5q151 0 330.5 148.5t214.5 308.5q16 69 16 106q0 117 -125 137q-37 7 -96 -12q-70 -20 -92 -22q-11 14 -17 30q111 54 189 47q80 -6 134 -78.5t50 -156.5z" />
<glyph unicode="&#x5e5;" horiz-adv-x="747" d="M1185 1337q16 0 16 -26q0 -58 -84 -232q-74 -149 -147.5 -264t-241.5 -336q-129 -241 -375 -739q-39 -88 -65 -88q-9 0 -19 4q-31 12 -22 31q4 6 28 32q17 17 157 284t167 337q-88 -102 -287 -272q-241 -205 -379 -269q-297 -137 -544 -149q-129 -6 -224 41 q-71 39 -110 102q-31 53 -21 78q21 -31 39 -64q35 -47 98 -73q84 -35 228 -35q426 0 887 393q192 166 376 395q74 179 213 498q56 119 148 229q102 123 162 123zM1144 1257q-60 5 -215 -278q-60 -111 -176 -401q159 192 241 358q160 319 150 321z" />
<glyph unicode="&#x5e6;" horiz-adv-x="673" d="M765 903q59 -33 59 -96q0 -113 -174 -281q-162 -155 -336 -231q25 4 52 4q88 0 162.5 -45t74.5 -109q0 -110 -176 -163q-123 -37 -264 -37q-195 0 -320 78q-12 8 -2 10q10 4 27 -4q102 -47 248 -47q157 -2 278 38q135 46 150 125q8 43 -82 82t-199 39q-57 0 -104 -12 q-6 8 -6 14q0 15 24 19q234 39 479 315q109 123 109 201q0 51 -90 51q-62 0 -160 -70q-10 -6 -14 -6t-4 4q0 33 59 80q68 53 152 53q34 0 57 -12z" />
<glyph unicode="&#x5e7;" horiz-adv-x="743" d="M675 145q-70 -110 -193 -182q-100 -55 -141 -49q14 16 85 57t107 78q142 141 142 270q0 70 -47 130q-60 73 -172 73q-95 0 -167.5 -41t-113.5 -35q18 35 96 76q101 56 201 51q125 -6 195 -77q63 -66 63 -166q0 -94 -55 -185zM347 291q-4 -31 -51 -103 q-242 -344 -531 -759q-43 -68 -104 -88q49 79 186 282q256 371 400 598q55 86 84 90q14 2 16 -4q4 -4 0 -16z" />
<glyph unicode="&#x5e8;" horiz-adv-x="452" d="M198 -18q-28 -17 -28 2q0 6 6 12q188 143 219 323q2 19 2 35q0 66 -59 86q-25 9 -51 9q-78 0 -152 -74q0 6 2 22q27 43 85 74t110 31q57 0 95 -39t38 -98q0 -105 -86 -224q-82 -108 -181 -159z" />
<glyph unicode="&#x5e9;" horiz-adv-x="497" d="M702 868q0 -39 -47 -168q-54 -141 -277 -360q-86 -84 -178 -139q-4 4 -4 14q90 70 160 150q151 174 233 329q49 90 49 150q0 45 -26 45q-49 0 -156 -105q-158 -151 -285 -501q-20 -54 -20 -105q0 -63 30.5 -104t80.5 -41q30 0 67 18q23 12 47.5 47t32.5 35 q12 0 23.5 -17.5t11.5 -31.5q0 -6 -2 -8q-25 -29 -74 -60q-66 -36 -117 -36q-69 0 -106 59q-33 51 -33 125q0 59 18 121q97 319 275 510q145 155 229 155q68 0 68 -82z" />
<glyph unicode="&#x5ea;" horiz-adv-x="714" d="M697 270q-4 -155 -86 -227q-14 -14 -30.5 -27.5t-36.5 -15.5q-9 -2 -20 3t-11 11q0 2 2 2q88 39 104.5 128t16.5 108q0 41 -19 84q-30 72 -90 72q-51 0 -76 -46q-14 -24 -55 -98q-86 -164 -194.5 -244.5t-165.5 -111.5q-107 -58 -219 -66q-119 -8 -154 64q6 6 16 8 q31 -43 111 -43q172 0 387 195q88 77 188 256q48 81 60 96q37 41 106 47q82 6 127 -59q39 -56 39 -136z" />
<glyph unicode="&#x5f0;" d="M609 712q0 -111 -76.5 -187t-187.5 -76q-108 0 -185 77t-77 186q0 110 77 187t185 77q111 0 187.5 -77t76.5 -187zM536 712q0 82 -55.5 137t-135.5 55t-135 -55t-55 -137q0 -78 55 -134.5t135 -56.5t135.5 56.5t55.5 134.5z" />
<glyph unicode="&#x5f1;" d="M609 712q0 -111 -76.5 -187t-187.5 -76q-108 0 -185 77t-77 186q0 110 77 187t185 77q111 0 187.5 -77t76.5 -187zM536 712q0 82 -55.5 137t-135.5 55t-135 -55t-55 -137q0 -78 55 -134.5t135 -56.5t135.5 56.5t55.5 134.5z" />
<glyph unicode="&#x5f2;" d="M609 712q0 -111 -76.5 -187t-187.5 -76q-108 0 -185 77t-77 186q0 110 77 187t185 77q111 0 187.5 -77t76.5 -187zM536 712q0 82 -55.5 137t-135.5 55t-135 -55t-55 -137q0 -78 55 -134.5t135 -56.5t135.5 56.5t55.5 134.5z" />
<glyph unicode="&#x5f3;" horiz-adv-x="292" d="M465 776q-15 -47 -72 -111.5t-109 -89.5q-41 -20 -53 -18q-4 0 -4 6q82 66 119 119q14 27 39 84q20 82 55 82t35 -25q0 -14 -10 -47z" />
<glyph unicode="&#x5f4;" horiz-adv-x="479" d="M651 776q-14 -47 -71.5 -111.5t-108.5 -89.5q-41 -20 -54 -18q-4 0 -2 6q78 62 117 119q17 27 41 84q21 82 53 82q33 0 33 -25q0 -14 -8 -47zM465 768q-15 -47 -72 -111.5t-109 -89.5q-41 -20 -53 -18q-4 2 -4 6q82 68 119 119q14 26 39 86q20 82 55 82t35 -25 q0 -16 -10 -49z" />
<glyph unicode="&#x200c;" d="M609 712q0 -111 -76.5 -187t-187.5 -76q-108 0 -185 77t-77 186q0 110 77 187t185 77q111 0 187.5 -77t76.5 -187zM536 712q0 82 -55.5 137t-135.5 55t-135 -55t-55 -137q0 -78 55 -134.5t135 -56.5t135.5 56.5t55.5 134.5z" />
<glyph unicode="&#x2013;" horiz-adv-x="540" d="M520 336q-23 -10 -50 -10q-98 6 -219 -27q-57 -14 -78 -8q-8 0 -12 20q-6 21 8 29q19 18 150 25q110 6 158 0q53 -7 43 -29z" />
<glyph unicode="&#x2014;" horiz-adv-x="765" d="M728 336q-36 -10 -78 -10q-155 6 -346 -27q-91 -14 -123 -8q-13 0 -19 20q-10 21 13 29q29 18 236 25q175 6 249 0q84 -7 68 -29z" />
<glyph unicode="&#x2018;" horiz-adv-x="292" d="M237 629q15 47 72 111.5t108 88.5q41 21 54 19q4 0 4 -6q-82 -66 -119 -119q-14 -27 -39 -84q-20 -82 -55 -82t-35 24q0 15 10 48z" />
<glyph unicode="&#x2019;" horiz-adv-x="292" d="M465 776q-15 -47 -72 -111.5t-109 -89.5q-41 -20 -53 -18q-4 0 -4 6q82 66 119 119q14 27 39 84q20 82 55 82t35 -25q0 -14 -10 -47z" />
<glyph unicode="&#x201a;" horiz-adv-x="292" d="M465 66q-15 -47 -72 -111.5t-109 -89.5q-41 -20 -53 -18q-4 0 -4 6q82 66 119 119q14 27 39 84q20 82 55 82t35 -25q0 -14 -10 -47z" />
<glyph unicode="&#x201c;" horiz-adv-x="479" d="M235 620q15 47 72 111.5t108 89.5q41 21 54 18q4 0 2 -6q-78 -61 -117 -118q-16 -27 -41 -84q-20 -82 -53 -82t-33 24q0 15 8 47zM422 629q14 47 71.5 111.5t108.5 88.5q41 21 53 19q4 -2 4 -6q-82 -68 -119 -119q-14 -27 -39 -86q-20 -82 -55 -82t-35 24q0 17 11 50z " />
<glyph unicode="&#x201d;" horiz-adv-x="479" d="M651 776q-14 -47 -71.5 -111.5t-108.5 -89.5q-41 -20 -54 -18q-4 0 -2 6q78 62 117 119q17 27 41 84q21 82 53 82q33 0 33 -25q0 -14 -8 -47zM465 768q-15 -47 -72 -111.5t-109 -89.5q-41 -20 -53 -18q-4 2 -4 6q82 68 119 119q14 26 39 86q20 82 55 82t35 -25 q0 -16 -10 -49z" />
<glyph unicode="&#x201e;" horiz-adv-x="479" d="M651 76q-14 -47 -71.5 -111.5t-108.5 -89.5q-41 -20 -54 -18q-4 0 -2 6q78 62 117 119q17 27 41 84q21 82 53 82q33 0 33 -25q0 -14 -8 -47zM465 68q-15 -47 -72 -111.5t-109 -89.5q-41 -20 -53 -18q-4 2 -4 6q82 68 119 119q14 26 39 86q20 82 55 82t35 -25 q0 -16 -10 -49z" />
<glyph unicode="&#x2020;" horiz-adv-x="874" d="M788 780q0 -37 -25.5 -59.5t-62.5 -22.5q-45 0 -141 39q-55 25 -110 29q6 -139 86 -203q-54 -196 -70 -459q-8 -96 -16 -464h-33q-2 372 -27 600q-18 170 -59 323q78 68 86 203q-56 -6 -113 -31q-90 -37 -131 -37q-86 0 -86 82q0 37 25.5 60.5t62.5 23.5q21 0 39 -4 q10 -4 90 -39q51 -22 113 -24q0 53 -31 125q-47 110 -47 165q0 46 26.5 79.5t69.5 33.5q41 0 67.5 -35t26.5 -78q0 -47 -47 -157q-30 -74 -32 -133q59 4 112 24q84 33 100.5 38t36.5 5q90 0 90 -84z" />
<glyph unicode="&#x2021;" horiz-adv-x="874" d="M755 -12q0 -80 -78 -80q-35 0 -109 33q-59 24 -116 28q6 -37 28 -116q43 -95 43 -142q0 -37 -23.5 -63.5t-62.5 -26.5q-37 0 -61.5 27.5t-24.5 66.5q0 33 41 140q21 55 27 114q-62 -4 -126.5 -32.5t-94.5 -28.5q-78 0 -78 76q0 77 82 77q33 0 95 -26.5t122 -28.5 q-14 84 -84 139q84 111 84 279q0 174 -84 264q67 51 84 146q-51 -3 -125 -33q-59 -25 -100 -25q-76 0 -76 76q0 74 74 74q40 0 112 -29q66 -27 115 -31q-2 37 -8 56q-11 41 -39 108q-8 25 -19 53q-4 13 -4 37q0 97 86 97q84 0 84 -99q0 -41 -35 -121q-26 -61 -32 -131 q57 4 120.5 32t106.5 28q76 0 76 -74q0 -76 -80 -76q-41 0 -107 27q-43 18 -57 22q-20 6 -59 9q12 -89 82 -146q-82 -117 -82 -274q0 -150 82 -269q-70 -57 -82 -145q49 8 110 33q72 28 115 28q78 0 78 -73z" />
<glyph unicode="&#x2022;" horiz-adv-x="612" d="M524 580q0 -91 -62.5 -153t-150.5 -62q-90 0 -152.5 62t-62.5 153q0 90 61.5 151.5t153.5 61.5q90 0 151.5 -61.5t61.5 -151.5z" />
<glyph unicode="&#x2026;" horiz-adv-x="1318" d="M1236 133l-173 -173l-173 173l173 174zM798 133l-173 -173l-173 173l173 174zM356 133l-173 -173l-173 173l173 174z" />
<glyph unicode="&#x2030;" horiz-adv-x="2048" d="M1979 319q0 -237 -143 -327q-72 -47 -143 -47q-80 0 -150 51q-63 45 -98 121q-39 84 -39 184q0 246 147 332q72 41 138 41q77 0 147 -48t105 -122q36 -82 36 -185zM642 1022q0 -143 -70 -246q-79 -117 -217 -117q-170 0 -252 172q-38 84 -38 191q0 229 145 321 q68 43 141 43q174 0 252 -176q39 -84 39 -188zM1220 1386l-973 -1441h-88l970 1441h91zM1316 311q0 -227 -150 -321q-69 -45 -141 -45q-135 0 -215 118q-74 105 -74 244q0 232 152 324q72 43 139 43q168 0 250 -176q39 -84 39 -187zM1820 330q0 291 -129 291 q-125 0 -125 -318q0 -303 129 -303q71 0 106 115q19 63 19 215zM482 1030q0 303 -135 303q-69 0 -100 -102q-23 -74 -23 -213q0 -309 129 -309t129 321zM1154 303q0 318 -131 318q-74 0 -106 -111q-21 -61 -21 -211q0 -299 127 -299q131 0 131 303z" />
<glyph unicode="&#x2039;" horiz-adv-x="681" d="M562 -8h-57l-387 473l387 469h57l-244 -469z" />
<glyph unicode="&#x203a;" horiz-adv-x="681" d="M566 463l-395 -471h-57l243 471l-243 471h57z" />
<glyph unicode="&#x20a7;" d="M609 712q0 -111 -76.5 -187t-187.5 -76q-108 0 -185 77t-77 186q0 110 77 187t185 77q111 0 187.5 -77t76.5 -187zM536 712q0 82 -55.5 137t-135.5 55t-135 -55t-55 -137q0 -78 55 -134.5t135 -56.5t135.5 56.5t55.5 134.5z" />
<glyph unicode="&#x20aa;" horiz-adv-x="1097" d="M1130 846q0 -62 -98 -205q-76 -109 -154 -197q-112 -122 -360 -260q-6 -28 -6 -57q0 -84 47 -102q25 -11 51 -11q72 0 127 58l62 82q43 55 61 55q27 0 27 -29q0 -10 -14.5 -20t-35.5 -45q-26 -43 -45 -62q-75 -84 -200 -84q-70 0 -101 70q-24 53 -20 131q-12 -12 -57 -31 q-29 -6 -56 -22q-6 -31 -28.5 -91.5t-57.5 -60.5q-4 0 -8 4q-27 17 0 43q37 37 29 99q-41 -7 -75 2.5t-81 31.5q-12 -20 -29.5 -70t-46 -68.5t-39.5 -18.5q-8 0 -12 10q-4 12 16 45q35 57 41 70q25 49 29 71q-12 33 -2 68q21 72 92 72q13 0 27 -5q74 -22 110 -79 q19 -27 29 -80l60 24q28 13 61 31q20 59 53 123q74 151 189 301q202 258 348 258q67 0 67 -51zM1044 842q-14 0 -90 -33q-98 -43 -246 -240q-94 -120 -176 -331q35 22 160 102q100 68 258 266q117 146 117 219q0 17 -23 17zM293 158q-4 16 -31 69q-23 31 -51 31 q-8 -8 -25 -31q-8 -12 -39 -53q21 -12 84 -31q43 -8 62 15zM498 604q-15 -24 -39 -80q-15 -45 -23 -59q-12 -23 -35 -37q-28 -20 -51 -25q6 21 35 89q14 24 41 86q16 55 41 49q12 -4 24.5 -7.5t6.5 -15.5zM360 594q-12 -14 -39 -57q-14 -27 -57 -93q-20 23 -20 39 q0 -2 36 92q29 74 43 74q13 0 27 -14t14 -25q0 -8 -4 -16z" />
<glyph unicode="&#x20ac;" horiz-adv-x="1024" d="M988 264q-86 -135 -156 -192q-114 -97 -276 -97q-231 0 -356 193q-103 156 -121 407h-101l23 78h74v17q0 30 2 67h-99l23 78h84q35 240 164 393q147 176 375 176q170 0 340 -88v-299h-39q-27 322 -301 322q-166 0 -258 -180q-66 -127 -86 -324h591l-22 -78h-576 q-2 -43 -2 -84h551l-22 -78h-527q7 -190 72 -329q88 -187 252 -187q133 0 223 70q55 41 137 156z" />
<glyph unicode="&#x2122;" horiz-adv-x="1" />
<glyph unicode="&#x2212;" horiz-adv-x="987" d="M951 547h-921v69h921v-69z" />
<glyph unicode="&#x25fc;" horiz-adv-x="905" d="M0 905h905v-905h-905v905z" />
<glyph unicode="&#xe802;" horiz-adv-x="661" d="M711 385q-6 -88 -157 -113q-86 -12 -200 -75.5t-187 -139.5q-82 -86 -162 -215q-10 -14 -178 -311q-113 -199 -158 -188q6 12 39 50t108 191q99 197 132 252q81 139 184 250q149 166 354 221q55 15 111 27q53 20 55 57q4 35 -80 63.5t-147 20.5q-41 -4 -117 -16 q-49 -8 -51 -4q-6 8 -6 16q0 21 59 39q121 20 219 8q58 -8 121 -51t61 -82zM-120 6q-4 -26 -18.5 -35t-33.5 -9q-20 3 -30.5 14.5t-13.5 28.5q0 20 13.5 34.5t31.5 16.5q18 -1 34.5 -11.5t16.5 -38.5zM-123 -260q-4 -26 -18.5 -35t-33.5 -9q-20 3 -30.5 14.5t-13.5 28.5 q0 20 13.5 34.5t31.5 16.5q18 -1 34.5 -11.5t16.5 -38.5z" />
<glyph unicode="&#xe803;" horiz-adv-x="661" d="M711 385q-6 -88 -157 -113q-86 -12 -200 -75.5t-187 -139.5q-82 -86 -162 -215q-10 -14 -178 -311q-113 -199 -158 -188q6 12 39 50t108 191q99 197 132 252q81 139 184 250q149 166 354 221q55 15 111 27q53 20 55 57q4 35 -80 63.5t-147 20.5q-41 -4 -117 -16 q-49 -8 -51 -4q-6 8 -6 16q0 21 59 39q121 20 219 8q58 -8 121 -51t61 -82zM-249 -56v-33q0 -15 13 -15h73q0 -21 -10 -43l-10 -25q-4 -8 -4 -18q0 -16 11.5 -28t27.5 -12q14 0 25.5 11.5t11.5 28.5q0 10 -4 18l-10 25q-9 20 -9 43h73q12 0 12 15v33q0 14 -12 14h-175 q-13 0 -13 -14z" />
<glyph unicode="&#xe804;" horiz-adv-x="358" d="M1256 1333q4 0 4 -4q-2 -4 -6 -4q-151 -4 -348 -113q-209 -114 -383 -444q-147 -293 -356 -690q-74 -121 -166 -199q-8 -8 -21.5 9.5t-13.5 35.5q0 13 8 19q103 100 166 215q94 166 207 409q94 201 143 277q115 174 181 246q98 106 243 182q137 71 342 61zM536 1015 q-4 -26 -18.5 -35t-33.5 -9q-20 3 -30.5 14.5t-13.5 28.5q0 20 13.5 34.5t31.5 16.5q18 -1 34.5 -11.5t16.5 -38.5z" />
<glyph unicode="&#xe805;" horiz-adv-x="358" d="M1256 1333q4 0 4 -4q-2 -4 -6 -4q-151 -4 -348 -113q-209 -114 -383 -444q-147 -293 -356 -690q-74 -121 -166 -199q-8 -8 -21.5 9.5t-13.5 35.5q0 13 8 19q103 100 166 215q94 166 207 409q94 201 143 277q115 174 181 246q98 106 243 182q137 71 342 61zM128 168 q-4 -26 -18.5 -35t-33.5 -9q-20 3 -30.5 14.5t-13.5 28.5q0 20 13.5 34.5t31.5 16.5q18 -1 34.5 -11.5t16.5 -38.5zM536 1015q-4 -26 -18.5 -35t-33.5 -9q-20 3 -30.5 14.5t-13.5 28.5q0 20 13.5 34.5t31.5 16.5q18 -1 34.5 -11.5t16.5 -38.5z" />
<glyph unicode="&#xf001;" horiz-adv-x="1138" d="M1087 57q-20 -26 -55 -49q-59 -37 -135 -37q-125 0 -125 158v563q0 107 -127 107h-256v-613q0 -98 37 -120q18 -15 143 -31q21 -4 21 -19q0 -16 -21 -16h-534q-17 0 -17 14q2 17 17 19q133 16 155.5 46t22.5 107v613h-82q-72 0 -111 43q-6 6 -2 16q5 10 13 10h182 q0 117 27 183q34 88 133 149q108 68 245 68q152 0 234 -86q55 -60 55 -95q0 -34 -26.5 -56.5t-63.5 -22.5q-29 0 -48 14t-48 65q-45 121 -141 121q-76 0 -131 -59q-62 -66 -62 -166v-115h213q141 2 213 2q135 0 135 -145v-569q0 -41 8 -54q13 -20 54 -20q32 0 53 12 q12 8 22 8q17 0 17 -16q0 -12 -15 -29z" />
<glyph unicode="&#xf002;" horiz-adv-x="974" d="M946 57q-20 -26 -55 -49q-60 -37 -135 -37q-125 0 -125 158v670h-281v-613q0 -98 35 -120q23 -15 135 -31q19 -4 19 -19q0 -16 -19 -16h-495q-17 0 -17 14q2 17 17 19q98 12 123.5 44t25.5 109v613h-61q-72 0 -113 43q-4 6 -2 16q4 10 12 10h164q0 136 27 203 q75 197 297 197q123 0 184 -84q72 55 125 55v-1083q0 -41 8 -54q12 -20 53 -20q35 0 54 12q12 8 22 8q17 0 17 -16q0 -12 -15 -29zM631 868v146q-41 20 -62 73q-26 72 -28 76q-27 45 -82 45q-43 0 -76 -59q-35 -66 -35 -166v-115h283z" />
<glyph unicode="&#xfb1d;" d="M609 712q0 -111 -76.5 -187t-187.5 -76q-108 0 -185 77t-77 186q0 110 77 187t185 77q111 0 187.5 -77t76.5 -187zM536 712q0 82 -55.5 137t-135.5 55t-135 -55t-55 -137q0 -78 55 -134.5t135 -56.5t135.5 56.5t55.5 134.5z" />
<glyph unicode="&#xfb1e;" d="M609 712q0 -111 -76.5 -187t-187.5 -76q-108 0 -185 77t-77 186q0 110 77 187t185 77q111 0 187.5 -77t76.5 -187zM536 712q0 82 -55.5 137t-135.5 55t-135 -55t-55 -137q0 -78 55 -134.5t135 -56.5t135.5 56.5t55.5 134.5z" />
<glyph unicode="&#xfb1f;" d="M609 712q0 -111 -76.5 -187t-187.5 -76q-108 0 -185 77t-77 186q0 110 77 187t185 77q111 0 187.5 -77t76.5 -187zM536 712q0 82 -55.5 137t-135.5 55t-135 -55t-55 -137q0 -78 55 -134.5t135 -56.5t135.5 56.5t55.5 134.5z" />
<glyph unicode="&#xfb20;" d="M609 712q0 -111 -76.5 -187t-187.5 -76q-108 0 -185 77t-77 186q0 110 77 187t185 77q111 0 187.5 -77t76.5 -187zM536 712q0 82 -55.5 137t-135.5 55t-135 -55t-55 -137q0 -78 55 -134.5t135 -56.5t135.5 56.5t55.5 134.5z" />
<glyph unicode="&#xfb21;" d="M609 712q0 -111 -76.5 -187t-187.5 -76q-108 0 -185 77t-77 186q0 110 77 187t185 77q111 0 187.5 -77t76.5 -187zM536 712q0 82 -55.5 137t-135.5 55t-135 -55t-55 -137q0 -78 55 -134.5t135 -56.5t135.5 56.5t55.5 134.5z" />
<glyph unicode="&#xfb22;" d="M609 712q0 -111 -76.5 -187t-187.5 -76q-108 0 -185 77t-77 186q0 110 77 187t185 77q111 0 187.5 -77t76.5 -187zM536 712q0 82 -55.5 137t-135.5 55t-135 -55t-55 -137q0 -78 55 -134.5t135 -56.5t135.5 56.5t55.5 134.5z" />
<glyph unicode="&#xfb23;" d="M609 712q0 -111 -76.5 -187t-187.5 -76q-108 0 -185 77t-77 186q0 110 77 187t185 77q111 0 187.5 -77t76.5 -187zM536 712q0 82 -55.5 137t-135.5 55t-135 -55t-55 -137q0 -78 55 -134.5t135 -56.5t135.5 56.5t55.5 134.5z" />
<glyph unicode="&#xfb24;" d="M609 712q0 -111 -76.5 -187t-187.5 -76q-108 0 -185 77t-77 186q0 110 77 187t185 77q111 0 187.5 -77t76.5 -187zM536 712q0 82 -55.5 137t-135.5 55t-135 -55t-55 -137q0 -78 55 -134.5t135 -56.5t135.5 56.5t55.5 134.5z" />
<glyph unicode="&#xfb25;" d="M609 712q0 -111 -76.5 -187t-187.5 -76q-108 0 -185 77t-77 186q0 110 77 187t185 77q111 0 187.5 -77t76.5 -187zM536 712q0 82 -55.5 137t-135.5 55t-135 -55t-55 -137q0 -78 55 -134.5t135 -56.5t135.5 56.5t55.5 134.5z" />
<glyph unicode="&#xfb26;" d="M609 712q0 -111 -76.5 -187t-187.5 -76q-108 0 -185 77t-77 186q0 110 77 187t185 77q111 0 187.5 -77t76.5 -187zM536 712q0 82 -55.5 137t-135.5 55t-135 -55t-55 -137q0 -78 55 -134.5t135 -56.5t135.5 56.5t55.5 134.5z" />
<glyph unicode="&#xfb27;" d="M609 712q0 -111 -76.5 -187t-187.5 -76q-108 0 -185 77t-77 186q0 110 77 187t185 77q111 0 187.5 -77t76.5 -187zM536 712q0 82 -55.5 137t-135.5 55t-135 -55t-55 -137q0 -78 55 -134.5t135 -56.5t135.5 56.5t55.5 134.5z" />
<glyph unicode="&#xfb28;" d="M609 712q0 -111 -76.5 -187t-187.5 -76q-108 0 -185 77t-77 186q0 110 77 187t185 77q111 0 187.5 -77t76.5 -187zM536 712q0 82 -55.5 137t-135.5 55t-135 -55t-55 -137q0 -78 55 -134.5t135 -56.5t135.5 56.5t55.5 134.5z" />
<glyph unicode="&#xfb29;" horiz-adv-x="593" d="M534 326q-10 -19 -43 -17q-63 4 -183 -8t-171 -25q-43 -12 -68 -6q-8 0 -12 15q-6 16 8 24q31 29 219 37q15 29 52 113q47 96 84 84q32 -8 32 -19q0 -6 -12 -18q-47 -47 -80 -156q103 10 131 8q56 -6 43 -32z" />
<glyph unicode="&#xfb2a;" horiz-adv-x="497" d="M702 868q0 -39 -47 -168q-54 -141 -277 -360q-86 -84 -178 -139q-4 4 -4 14q90 70 160 150q151 174 233 329q49 90 49 150q0 45 -26 45q-49 0 -156 -105q-158 -151 -285 -501q-20 -54 -20 -105q0 -63 30.5 -104t80.5 -41q30 0 67 18q23 12 47.5 47t32.5 35 q12 0 23.5 -17.5t11.5 -31.5q0 -6 -2 -8q-25 -29 -74 -60q-66 -36 -117 -36q-69 0 -106 59q-33 51 -33 125q0 59 18 121q97 319 275 510q145 155 229 155q68 0 68 -82zM830 1015q-4 -26 -18.5 -35t-33.5 -9q-20 3 -30.5 14.5t-13.5 28.5q0 20 13.5 34.5t31.5 16.5 q18 -1 34.5 -11.5t16.5 -38.5z" />
<glyph unicode="&#xfb2b;" horiz-adv-x="497" d="M702 868q0 -39 -47 -168q-54 -141 -277 -360q-86 -84 -178 -139q-4 4 -4 14q90 70 160 150q151 174 233 329q49 90 49 150q0 45 -26 45q-49 0 -156 -105q-158 -151 -285 -501q-20 -54 -20 -105q0 -63 30.5 -104t80.5 -41q30 0 67 18q23 12 47.5 47t32.5 35 q12 0 23.5 -17.5t11.5 -31.5q0 -6 -2 -8q-25 -29 -74 -60q-66 -36 -117 -36q-69 0 -106 59q-33 51 -33 125q0 59 18 121q97 319 275 510q145 155 229 155q68 0 68 -82zM450 1015q-4 -26 -18.5 -35t-33.5 -9q-20 3 -30.5 14.5t-13.5 28.5q0 20 13.5 34.5t31.5 16.5 q18 -1 34.5 -11.5t16.5 -38.5z" />
<glyph unicode="&#xfb2c;" horiz-adv-x="497" d="M702 868q0 -39 -47 -168q-54 -141 -277 -360q-86 -84 -178 -139q-4 4 -4 14q90 70 160 150q151 174 233 329q49 90 49 150q0 45 -26 45q-49 0 -156 -105q-158 -151 -285 -501q-20 -54 -20 -105q0 -63 30.5 -104t80.5 -41q30 0 67 18q23 12 47.5 47t32.5 35 q12 0 23.5 -17.5t11.5 -31.5q0 -6 -2 -8q-25 -29 -74 -60q-66 -36 -117 -36q-69 0 -106 59q-33 51 -33 125q0 59 18 121q97 319 275 510q145 155 229 155q68 0 68 -82zM830 1015q-4 -26 -18.5 -35t-33.5 -9q-20 3 -30.5 14.5t-13.5 28.5q0 20 13.5 34.5t31.5 16.5 q18 -1 34.5 -11.5t16.5 -38.5zM446 565q-4 -26 -18.5 -35t-33.5 -9q-20 3 -30.5 14.5t-13.5 28.5q0 20 13.5 34.5t31.5 16.5q18 -1 34.5 -11.5t16.5 -38.5z" />
<glyph unicode="&#xfb2d;" horiz-adv-x="497" d="M702 868q0 -39 -47 -168q-54 -141 -277 -360q-86 -84 -178 -139q-4 4 -4 14q90 70 160 150q151 174 233 329q49 90 49 150q0 45 -26 45q-49 0 -156 -105q-158 -151 -285 -501q-20 -54 -20 -105q0 -63 30.5 -104t80.5 -41q30 0 67 18q23 12 47.5 47t32.5 35 q12 0 23.5 -17.5t11.5 -31.5q0 -6 -2 -8q-25 -29 -74 -60q-66 -36 -117 -36q-69 0 -106 59q-33 51 -33 125q0 59 18 121q97 319 275 510q145 155 229 155q68 0 68 -82zM450 1015q-4 -26 -18.5 -35t-33.5 -9q-20 3 -30.5 14.5t-13.5 28.5q0 20 13.5 34.5t31.5 16.5 q18 -1 34.5 -11.5t16.5 -38.5zM446 565q-4 -26 -18.5 -35t-33.5 -9q-20 3 -30.5 14.5t-13.5 28.5q0 20 13.5 34.5t31.5 16.5q18 -1 34.5 -11.5t16.5 -38.5z" />
<glyph unicode="&#xfb2e;" d="M609 712q0 -111 -76.5 -187t-187.5 -76q-108 0 -185 77t-77 186q0 110 77 187t185 77q111 0 187.5 -77t76.5 -187zM536 712q0 82 -55.5 137t-135.5 55t-135 -55t-55 -137q0 -78 55 -134.5t135 -56.5t135.5 56.5t55.5 134.5z" />
<glyph unicode="&#xfb2f;" d="M609 712q0 -111 -76.5 -187t-187.5 -76q-108 0 -185 77t-77 186q0 110 77 187t185 77q111 0 187.5 -77t76.5 -187zM536 712q0 82 -55.5 137t-135.5 55t-135 -55t-55 -137q0 -78 55 -134.5t135 -56.5t135.5 56.5t55.5 134.5z" />
<glyph unicode="&#xfb30;" d="M609 712q0 -111 -76.5 -187t-187.5 -76q-108 0 -185 77t-77 186q0 110 77 187t185 77q111 0 187.5 -77t76.5 -187zM536 712q0 82 -55.5 137t-135.5 55t-135 -55t-55 -137q0 -78 55 -134.5t135 -56.5t135.5 56.5t55.5 134.5z" />
<glyph unicode="&#xfb31;" horiz-adv-x="583" d="M589 276q6 -40 6 -69q0 -76 -50 -136.5t-179 -60.5q-33 0 -91 29q-67 35 -102 80q-66 -72 -168 -182q-20 -17 -37 -17q-8 0 -8 6q0 8 14 23q33 35 96.5 124t75 101t33.5 12q23 2 29 -8q33 -45 93 -86t105 -37q46 4 62 13q41 20 59 82q8 28 8 59q0 96 -79.5 169t-188.5 62 q-18 -2 -18 9q0 22 39 26q16 2 34 2q95 0 172.5 -57.5t94.5 -143.5zM345 278q-4 -26 -18.5 -35t-33.5 -9q-20 3 -30.5 14.5t-13.5 28.5q0 20 13.5 34.5t31.5 16.5q18 -1 34.5 -11.5t16.5 -38.5z" />
<glyph unicode="&#xfb32;" horiz-adv-x="632" d="M770 594q-225 -74 -338 -242q-47 -67 -67 -127q86 17 156 13q36 -5 58.5 -36.5t18.5 -56.5q-10 -75 -120 -75q-23 0 -37 6q-45 12 -119 74q-35 -5 -84 -33q-121 -68 -301 -240q-146 -139 -311 -430q-58 -102 -68 -96q16 71 90 211q111 205 260 352q236 229 395 291 q3 16 23 78q55 131 203 233q114 80 215 107q16 6 22 -11q2 -8 4 -18zM557 160q-4 33 -73 37q-52 2 -109 -25q64 -55 103 -53q28 0 54.5 11t24.5 30zM192 -137q-4 -26 -18.5 -35t-33.5 -9q-20 3 -30.5 14.5t-13.5 28.5q0 20 13.5 34.5t31.5 16.5q18 -1 34.5 -11.5t16.5 -38.5 z" />
<glyph unicode="&#xfb33;" horiz-adv-x="679" d="M700 362q-37 -38 -156 -94q15 -18 15 -37q0 -45 -76 -114q-47 -39 -96 -78q-86 -70 -218 -117q-8 -2 -8 4q0 19 17 29q258 133 313 256q4 12 -14 31q-131 -39 -265 -39q-133 0 -143 47q-4 29 96 57q78 21 140 25q129 6 213 -41q86 41 161 115q17 16 17 43q0 71 -80 79 q-143 17 -170 17q-107 0 -219 -64q-6 -4 -10 -4q-9 0 9.5 25.5t35.5 40.5q69 67 247 53q242 -18 242 -133q0 -47 -51 -101zM440 260q-56 21 -131 25q-150 8 -174 -35q-4 -10 47 -14q45 -5 94 -5q82 5 164 29zM462 427q-4 -26 -18.5 -35t-33.5 -9q-20 3 -30.5 14.5 t-13.5 28.5q0 20 13.5 34.5t31.5 16.5q18 -1 34.5 -11.5t16.5 -38.5z" />
<glyph unicode="&#xfb34;" horiz-adv-x="731" d="M727 385q14 -199 -158 -348q-149 -131 -283 -131q-18 0 -32 4q2 4 -3 7t-5 5q4 4 28 8q146 25 268.5 154t122.5 266q0 43 -14 82q-66 176 -317 176q-101 0 -191 -30q-12 -5 -20 -5q-13 0 -13 13q0 24 25 35q102 41 205 41q155 0 268 -83t119 -194zM446 246 q-22 -90 -151 -178q-121 -82 -189 -68q-10 2 -4 10q6 10 29 17q84 26 172 110t88 129q0 51 -70 51q-16 0 -110 -20q-19 -4 -19 6q0 16 23 29q61 33 139 33q98 0 98 -78q0 -19 -6 -41zM602 275q-4 -26 -18.5 -35t-33.5 -9q-20 3 -30.5 14.5t-13.5 28.5q0 20 13.5 34.5 t31.5 16.5q18 -1 34.5 -11.5t16.5 -38.5z" />
<glyph unicode="&#xfb35;" horiz-adv-x="337" d="M392 625q-19 -25 -197 -396q-149 -309 -229 -368q-6 -6 -19 -2q-14 4 -10 10q47 65 55 76q35 55 60 112q96 199 272 588q6 14 23 14q16 0 32.5 -13t12.5 -21zM136 320q-4 -26 -18.5 -35t-33.5 -9q-20 3 -30.5 14.5t-13.5 28.5q0 20 13.5 34.5t31.5 16.5q18 -1 34.5 -11.5 t16.5 -38.5z" />
<glyph unicode="&#xfb36;" horiz-adv-x="477" d="M642 586q-107 -23 -228 -92q-155 -88 -205 -195q-16 -35 -16 -74q0 -73 81 -202t81 -187q0 -149 -244 -287q-153 -84 -377 -153q-12 -4 -12 2q0 8 12.5 22.5t18.5 16.5q166 59 276 119q217 116 258 231q10 27 10 53q0 62 -81.5 184.5t-81.5 202.5q0 49 24.5 103.5 t112.5 132.5q117 102 260 151q55 19 88 19q37 0 37 -25q0 -20 -14 -22zM102 -186q-4 -26 -18.5 -35t-33.5 -9q-20 3 -30.5 14.5t-13.5 28.5q0 20 13.5 34.5t31.5 16.5q18 -1 34.5 -11.5t16.5 -38.5z" />
<glyph unicode="&#xfb38;" horiz-adv-x="593" d="M1193 1171q-2 -8 -12 -18q-275 -68 -633 -442q-133 -140 -340 -443q-86 -125 -86 -229q0 -86 39 -92q121 -19 221 108q127 164 185 338q4 10 12 10q22 0 14 -24q-69 -258 -217 -404q-33 -30 -90 -53.5t-102 -23.5q-31 0 -48 10q-61 41 -61 139q0 51 16 98q50 148 225 372 t369 380q217 172 320 217q127 53 188 57zM342 164q-4 -26 -18.5 -35t-33.5 -9q-20 3 -30.5 14.5t-13.5 28.5q0 20 13.5 34.5t31.5 16.5q18 -1 34.5 -11.5t16.5 -38.5z" />
<glyph unicode="&#xfb39;" horiz-adv-x="260" d="M332 487q-31 -75 -74 -133q-24 -32 -52 -65t-71 -49q-4 -2 -4 4q0 30 29 55q18 16 69 107q11 32 27 79q2 4 37 43q2 4 6 4q12 0 25.5 -14t7.5 -31zM211 422q-4 -26 -18.5 -35t-33.5 -9q-20 3 -30.5 14.5t-13.5 28.5q0 20 13.5 34.5t31.5 16.5q18 -1 34.5 -11.5 t16.5 -38.5z" />
<glyph unicode="&#xfb3a;" horiz-adv-x="661" d="M711 385q-6 -88 -157 -113q-86 -12 -200 -75.5t-187 -139.5q-82 -86 -162 -215q-10 -14 -178 -311q-113 -199 -158 -188q6 12 39 50t108 191q99 197 132 252q81 139 184 250q149 166 354 221q55 15 111 27q53 20 55 57q4 35 -80 63.5t-147 20.5q-41 -4 -117 -16 q-49 -8 -51 -4q-6 8 -6 16q0 21 59 39q121 20 219 8q58 -8 121 -51t61 -82zM456 369q-4 -26 -18.5 -35t-33.5 -9q-20 3 -30.5 14.5t-13.5 28.5q0 20 13.5 34.5t31.5 16.5q18 -1 34.5 -11.5t16.5 -38.5z" />
<glyph unicode="&#xfb3b;" horiz-adv-x="540" d="M567 311q-12 -192 -268 -276q-102 -35 -239 -35q-134 0 -232 76q-6 4 -6 10q0 14 16 14q4 0 9 -4q86 -55 194 -55q109 0 164 12q123 27 203 88q102 76 90 181q-14 106 -162 106q-49 0 -88 -14q-16 -6 -31 -4q-12 2 -8 8q27 33 100 49q62 14 99 8q170 -18 159 -164z M230 233q-4 -26 -18.5 -35t-33.5 -9q-20 3 -30.5 14.5t-13.5 28.5q0 20 13.5 34.5t31.5 16.5q18 -1 34.5 -11.5t16.5 -38.5z" />
<glyph unicode="&#xfb3c;" horiz-adv-x="358" d="M1256 1333q4 0 4 -4q-2 -4 -6 -4q-151 -4 -348 -113q-209 -114 -383 -444q-147 -293 -356 -690q-74 -121 -166 -199q-8 -8 -21.5 9.5t-13.5 35.5q0 13 8 19q103 100 166 215q94 166 207 409q94 201 143 277q115 174 181 246q98 106 243 182q137 71 342 61zM128 168 q-4 -26 -18.5 -35t-33.5 -9q-20 3 -30.5 14.5t-13.5 28.5q0 20 13.5 34.5t31.5 16.5q18 -1 34.5 -11.5t16.5 -38.5z" />
<glyph unicode="&#xfb3e;" horiz-adv-x="653" d="M808 682q4 4 6 4q6 0 2 -22q-6 -25 -17 -43l-206 -369q-4 -6 -66 -129q-35 -70 -67 -100q-25 -25 -48 -25q-16 0 -28 14q-51 60 -72 168q-16 90 4 172q-31 -53 -95.5 -172t-191.5 -344q-65 -108 -211 -190q-8 -6 -14 2q-6 6 0 12q115 68 197 236q151 313 203 399 q28 51 58 102.5t60 73.5q13 10 29 4t18 -20q4 -21 -9 -91.5t-7 -113.5q6 -60 16.5 -121t44.5 -66q21 -4 64 87q63 135 78 159q151 246 252 373zM550 434q-4 -26 -18.5 -35t-33.5 -9q-20 3 -30.5 14.5t-13.5 28.5q0 20 13.5 34.5t31.5 16.5q18 -1 34.5 -11.5t16.5 -38.5z" />
<glyph unicode="&#xfb40;" horiz-adv-x="380" d="M381 555q-129 -393 -323 -702q-236 -375 -449 -486q-133 -69 -240 -69q-153 0 -266 149q-6 8 -4 18q4 11 8 3q99 -136 244 -136q45 0 90 15q168 53 289 168q96 92 233 301q178 272 375 759q2 7 12 7q13 0 24 -8.5t7 -18.5zM-21 -64q-4 -26 -18.5 -35t-33.5 -9 q-20 3 -30.5 14.5t-13.5 28.5q0 20 13.5 34.5t31.5 16.5q18 -1 34.5 -11.5t16.5 -38.5z" />
<glyph unicode="&#xfb41;" horiz-adv-x="757" d="M782 522q21 -10 21 -69q0 -86 -41 -181q-51 -116 -144 -176q-176 -116 -321 -116q-84 0 -154 36q-55 29 -55 115q0 162 193 281q217 131 395 131q65 0 106 -21zM661 498q-149 0 -350 -121q-73 -45 -121.5 -121t-48.5 -137q0 -49 33 -66q53 -28 121 -28q139 0 295 108 q65 45 110 152q41 92 41 161q0 39 -22 48q-10 4 -58 4zM496 259q-4 -26 -18.5 -35t-33.5 -9q-20 3 -30.5 14.5t-13.5 28.5q0 20 13.5 34.5t31.5 16.5q18 -1 34.5 -11.5t16.5 -38.5z" />
<glyph unicode="&#xfb43;" horiz-adv-x="1067" d="M1298 1155q0 -170 -154 -577q-80 -213 -305 -621q-111 -197 -221 -391q-25 -53 -62 -53q-6 0 -12 4t-6 16q0 25 70 135q118 187 192 318q143 260 281 573q176 408 176 600q0 101 -53 119q-23 8 -50 8q-180 0 -491 -271.5t-440 -529.5q-95 -188 -95 -260q0 -78 72 -135 q37 -31 113 -31q98 0 276 52q92 26 185 53q-23 -29 -181 -88q-180 -66 -295 -66q-43 0 -73 13q-156 61 -156 213q0 77 47 172q174 356 516 651q324 278 522 278q144 0 144 -182zM745 586q-4 -26 -18.5 -35t-33.5 -9q-20 3 -30.5 14.5t-13.5 28.5q0 20 13.5 34.5t31.5 16.5 q18 -1 34.5 -11.5t16.5 -38.5z" />
<glyph unicode="&#xfb44;" horiz-adv-x="825" d="M854 465q-10 -174 -180 -352q-74 -78 -198 -131.5t-234 -53.5q-88 0 -142.5 34t-54.5 99q0 62 45 142q41 69 94 116q62 54 146 99q102 53 168 53q108 0 104 -143q0 -21 -10 -21q-12 0 -12 17q2 45 -27 76.5t-68 25.5q-108 -23 -243 -125q-54 -39 -97 -106.5t-43 -124.5 q0 -52 41 -82.5t107 -30.5q151 0 330.5 148.5t214.5 308.5q16 69 16 106q0 117 -125 137q-37 7 -96 -12q-70 -20 -92 -22q-11 14 -17 30q111 54 189 47q80 -6 134 -78.5t50 -156.5zM420 183q-4 -26 -18.5 -35t-33.5 -9q-20 3 -30.5 14.5t-13.5 28.5q0 20 13.5 34.5 t31.5 16.5q18 -1 34.5 -11.5t16.5 -38.5z" />
<glyph unicode="&#xfb46;" horiz-adv-x="673" d="M765 903q59 -33 59 -96q0 -113 -174 -281q-162 -155 -336 -231q25 4 52 4q88 0 162.5 -45t74.5 -109q0 -110 -176 -163q-123 -37 -264 -37q-195 0 -320 78q-12 8 -2 10q10 4 27 -4q102 -47 248 -47q157 -2 278 38q135 46 150 125q8 43 -82 82t-199 39q-57 0 -104 -12 q-6 8 -6 14q0 15 24 19q234 39 479 315q109 123 109 201q0 51 -90 51q-62 0 -160 -70q-10 -6 -14 -6t-4 4q0 33 59 80q68 53 152 53q34 0 57 -12zM254 118q-4 -26 -18.5 -35t-33.5 -9q-20 3 -30.5 14.5t-13.5 28.5q0 20 13.5 34.5t31.5 16.5q18 -1 34.5 -11.5t16.5 -38.5z " />
<glyph unicode="&#xfb47;" horiz-adv-x="743" d="M675 145q-70 -110 -193 -182q-100 -55 -141 -49q14 16 85 57t107 78q142 141 142 270q0 70 -47 130q-60 73 -172 73q-95 0 -167.5 -41t-113.5 -35q18 35 96 76q101 56 201 51q125 -6 195 -77q63 -66 63 -166q0 -94 -55 -185zM347 291q-4 -31 -51 -103 q-242 -344 -531 -759q-43 -68 -104 -88q49 79 186 282q256 371 400 598q55 86 84 90q14 2 16 -4q4 -4 0 -16zM543 244q-4 -26 -18.5 -35t-33.5 -9q-20 3 -30.5 14.5t-13.5 28.5q0 20 13.5 34.5t31.5 16.5q18 -1 34.5 -11.5t16.5 -38.5z" />
<glyph unicode="&#xfb48;" horiz-adv-x="452" d="M198 -18q-28 -17 -28 2q0 6 6 12q188 143 219 323q2 19 2 35q0 66 -59 86q-25 9 -51 9q-78 0 -152 -74q0 6 2 22q27 43 85 74t110 31q57 0 95 -39t38 -98q0 -105 -86 -224q-82 -108 -181 -159zM283 270q-4 -26 -18.5 -35t-33.5 -9q-20 3 -30.5 14.5t-13.5 28.5 q0 20 13.5 34.5t31.5 16.5q18 -1 34.5 -11.5t16.5 -38.5z" />
<glyph unicode="&#xfb49;" horiz-adv-x="497" d="M702 868q0 -39 -47 -168q-54 -141 -277 -360q-86 -84 -178 -139q-4 4 -4 14q90 70 160 150q151 174 233 329q49 90 49 150q0 45 -26 45q-49 0 -156 -105q-158 -151 -285 -501q-20 -54 -20 -105q0 -63 30.5 -104t80.5 -41q30 0 67 18q23 12 47.5 47t32.5 35 q12 0 23.5 -17.5t11.5 -31.5q0 -6 -2 -8q-25 -29 -74 -60q-66 -36 -117 -36q-69 0 -106 59q-33 51 -33 125q0 59 18 121q97 319 275 510q145 155 229 155q68 0 68 -82zM446 565q-4 -26 -18.5 -35t-33.5 -9q-20 3 -30.5 14.5t-13.5 28.5q0 20 13.5 34.5t31.5 16.5 q18 -1 34.5 -11.5t16.5 -38.5z" />
<glyph unicode="&#xfb4a;" horiz-adv-x="714" d="M697 270q-4 -155 -86 -227q-14 -14 -30.5 -27.5t-36.5 -15.5q-9 -2 -20 3t-11 11q0 2 2 2q88 39 104.5 128t16.5 108q0 41 -19 84q-30 72 -90 72q-51 0 -76 -46q-14 -24 -55 -98q-86 -164 -194.5 -244.5t-165.5 -111.5q-107 -58 -219 -66q-119 -8 -154 64q6 6 16 8 q31 -43 111 -43q172 0 387 195q88 77 188 256q48 81 60 96q37 41 106 47q82 6 127 -59q39 -56 39 -136zM557 210q-4 -26 -18.5 -35t-33.5 -9q-20 3 -30.5 14.5t-13.5 28.5q0 20 13.5 34.5t31.5 16.5q18 -1 34.5 -11.5t16.5 -38.5z" />
<glyph unicode="&#xfb4b;" horiz-adv-x="337" d="M392 625q-19 -25 -197 -396q-149 -309 -229 -368q-6 -6 -19 -2q-14 4 -10 10q47 65 55 76q35 55 60 112q96 199 272 588q6 14 23 14q16 0 32.5 -13t12.5 -21zM586 1015q-4 -26 -18.5 -35t-33.5 -9q-20 3 -30.5 14.5t-13.5 28.5q0 20 13.5 34.5t31.5 16.5 q18 -1 34.5 -11.5t16.5 -38.5z" />
<glyph unicode="&#xfb4c;" d="M609 712q0 -111 -76.5 -187t-187.5 -76q-108 0 -185 77t-77 186q0 110 77 187t185 77q111 0 187.5 -77t76.5 -187zM536 712q0 82 -55.5 137t-135.5 55t-135 -55t-55 -137q0 -78 55 -134.5t135 -56.5t135.5 56.5t55.5 134.5z" />
<glyph unicode="&#xfffc;" d="M609 712q0 -111 -76.5 -187t-187.5 -76q-108 0 -185 77t-77 186q0 110 77 187t185 77q111 0 187.5 -77t76.5 -187zM536 712q0 82 -55.5 137t-135.5 55t-135 -55t-55 -137q0 -78 55 -134.5t135 -56.5t135.5 56.5t55.5 134.5z" />
<glyph horiz-adv-x="0" />
<glyph horiz-adv-x="0" />
<glyph horiz-adv-x="0" />
<glyph horiz-adv-x="0" />
<glyph horiz-adv-x="0" />
<glyph horiz-adv-x="0" />
<glyph horiz-adv-x="0" />
<glyph horiz-adv-x="0" />
<glyph horiz-adv-x="0" />
<glyph horiz-adv-x="0" />
<glyph horiz-adv-x="0" />
<glyph horiz-adv-x="0" />
<glyph horiz-adv-x="0" />
<glyph horiz-adv-x="0" />
<glyph horiz-adv-x="0" />
<glyph horiz-adv-x="0" />
<glyph horiz-adv-x="0" />
<glyph horiz-adv-x="0" />
<glyph horiz-adv-x="0" />
<glyph horiz-adv-x="0" />
<glyph horiz-adv-x="0" />
<glyph horiz-adv-x="0" />
<glyph horiz-adv-x="0" />
<glyph horiz-adv-x="0" />
<glyph horiz-adv-x="0" />
<glyph horiz-adv-x="0" />
<glyph horiz-adv-x="0" />
<glyph horiz-adv-x="0" />
<glyph horiz-adv-x="0" />
<glyph d="M609 712q0 -111 -76.5 -187t-187.5 -76q-108 0 -185 77t-77 186q0 110 77 187t185 77q111 0 187.5 -77t76.5 -187zM536 712q0 82 -55.5 137t-135.5 55t-135 -55t-55 -137q0 -78 55 -134.5t135 -56.5t135.5 56.5t55.5 134.5z" />
<glyph d="M609 712q0 -111 -76.5 -187t-187.5 -76q-108 0 -185 77t-77 186q0 110 77 187t185 77q111 0 187.5 -77t76.5 -187zM536 712q0 82 -55.5 137t-135.5 55t-135 -55t-55 -137q0 -78 55 -134.5t135 -56.5t135.5 56.5t55.5 134.5z" />
<glyph d="M609 712q0 -111 -76.5 -187t-187.5 -76q-108 0 -185 77t-77 186q0 110 77 187t185 77q111 0 187.5 -77t76.5 -187zM536 712q0 82 -55.5 137t-135.5 55t-135 -55t-55 -137q0 -78 55 -134.5t135 -56.5t135.5 56.5t55.5 134.5z" />
<glyph d="M609 712q0 -111 -76.5 -187t-187.5 -76q-108 0 -185 77t-77 186q0 110 77 187t185 77q111 0 187.5 -77t76.5 -187zM536 712q0 82 -55.5 137t-135.5 55t-135 -55t-55 -137q0 -78 55 -134.5t135 -56.5t135.5 56.5t55.5 134.5z" />
<glyph d="M609 712q0 -111 -76.5 -187t-187.5 -76q-108 0 -185 77t-77 186q0 110 77 187t185 77q111 0 187.5 -77t76.5 -187zM536 712q0 82 -55.5 137t-135.5 55t-135 -55t-55 -137q0 -78 55 -134.5t135 -56.5t135.5 56.5t55.5 134.5z" />
<glyph d="M609 712q0 -111 -76.5 -187t-187.5 -76q-108 0 -185 77t-77 186q0 110 77 187t185 77q111 0 187.5 -77t76.5 -187zM536 712q0 82 -55.5 137t-135.5 55t-135 -55t-55 -137q0 -78 55 -134.5t135 -56.5t135.5 56.5t55.5 134.5z" />
<glyph d="M609 712q0 -111 -76.5 -187t-187.5 -76q-108 0 -185 77t-77 186q0 110 77 187t185 77q111 0 187.5 -77t76.5 -187zM536 712q0 82 -55.5 137t-135.5 55t-135 -55t-55 -137q0 -78 55 -134.5t135 -56.5t135.5 56.5t55.5 134.5z" />
<glyph d="M609 712q0 -111 -76.5 -187t-187.5 -76q-108 0 -185 77t-77 186q0 110 77 187t185 77q111 0 187.5 -77t76.5 -187zM536 712q0 82 -55.5 137t-135.5 55t-135 -55t-55 -137q0 -78 55 -134.5t135 -56.5t135.5 56.5t55.5 134.5z" />
<glyph d="M609 712q0 -111 -76.5 -187t-187.5 -76q-108 0 -185 77t-77 186q0 110 77 187t185 77q111 0 187.5 -77t76.5 -187zM536 712q0 82 -55.5 137t-135.5 55t-135 -55t-55 -137q0 -78 55 -134.5t135 -56.5t135.5 56.5t55.5 134.5z" />
<glyph d="M609 712q0 -111 -76.5 -187t-187.5 -76q-108 0 -185 77t-77 186q0 110 77 187t185 77q111 0 187.5 -77t76.5 -187zM536 712q0 82 -55.5 137t-135.5 55t-135 -55t-55 -137q0 -78 55 -134.5t135 -56.5t135.5 56.5t55.5 134.5z" />
<glyph d="M609 712q0 -111 -76.5 -187t-187.5 -76q-108 0 -185 77t-77 186q0 110 77 187t185 77q111 0 187.5 -77t76.5 -187zM536 712q0 82 -55.5 137t-135.5 55t-135 -55t-55 -137q0 -78 55 -134.5t135 -56.5t135.5 56.5t55.5 134.5z" />
<glyph d="M609 712q0 -111 -76.5 -187t-187.5 -76q-108 0 -185 77t-77 186q0 110 77 187t185 77q111 0 187.5 -77t76.5 -187zM536 712q0 82 -55.5 137t-135.5 55t-135 -55t-55 -137q0 -78 55 -134.5t135 -56.5t135.5 56.5t55.5 134.5z" />
<glyph horiz-adv-x="2204" d="M1971 1041l-171 83q-10 5 -17 5q-4 -1 -7 -2q-86 -40 -109 -54q-13 -8 -16 -24l-6 -42q-12 -69 -47 -138q-37 -73 -78 -117q-23 -25 -47 -25q-17 0 -26 13q-143 215 -236 370q-68 114 -209 368q-25 46 -71 69l-124 60q140 45 288 45q212 0 402.5 -91t323.5 -255 q97 -121 150 -265zM2032 725q0 -191 -62 -346q-22 -53 -73.5 -121.5t-90.5 -99.5q-47 65 -100 168l-68 134q55 14 100 36q87 42 157 114q88 89 120 195h15q2 -19 2 -80zM790 1176q-197 -16 -351 -110q-23 -15 -99 -73q-60 -45 -168 -143q28 198 135.5 368.5t275.5 280.5 q89 -123 207 -323zM1588 -71q-226 -141 -493 -141q-386 0 -659 273q-172 171 -238 403l213 -81q40 -16 63 -16q49 0 71 56l13 42q78 188 238 346q103 102 151 102q12 0 17 -8q158 -228 363 -603q61 -111 141 -270q31 -60 120 -103z" />
</font>
</defs>
</svg>
